  0
SECTION
  2
HEADER
  9
$ACADVER
  1
AC1015
  9
$ACADMAINTVER
 70
    20
  9
$DWGCODEPAGE
  3
ANSI_936
  9
$INSBASE
 10
0.0
 20
0.0
 30
0.0
  9
$EXTMIN
 10
817.9595832473225
 20
-70.02721293615102
 30
0.0
  9
$EXTMAX
 10
1125.822049411336
 20
228.1846091636204
 30
0.0
  9
$LIMMIN
 10
0.0
 20
0.0
  9
$LIMMAX
 10
12.0
 20
9.0
  9
$ORTHOMODE
 70
     1
  9
$REGENMODE
 70
     1
  9
$FILLMODE
 70
     1
  9
$QTEXTMODE
 70
     0
  9
$MIRRTEXT
 70
     0
  9
$LTSCALE
 40
1.0
  9
$ATTMODE
 70
     1
  9
$TEXTSIZE
 40
0.2
  9
$TRACEWID
 40
0.05
  9
$TEXTSTYLE
  7
STANDARD
  9
$CLAYER
  8
标注
  9
$CELTYPE
  6
ByLayer
  9
$CECOLOR
 62
   256
  9
$CELTSCALE
 40
1.0
  9
$DISPSILH
 70
     0
  9
$DIMSCALE
 40
1.0
  9
$DIMASZ
 40
0.65
  9
$DIMEXO
 40
0.88
  9
$DIMDLI
 40
0.015
  9
$DIMRND
 40
0.0
  9
$DIMDLE
 40
0.0
  9
$DIMEXE
 40
0.32
  9
$DIMTP
 40
0.0
  9
$DIMTM
 40
0.0
  9
$DIMTXT
 40
0.65
  9
$DIMCEN
 40
0.09
  9
$DIMTSZ
 40
0.0
  9
$DIMTOL
 70
     0
  9
$DIMLIM
 70
     0
  9
$DIMTIH
 70
     0
  9
$DIMTOH
 70
     0
  9
$DIMSE1
 70
     0
  9
$DIMSE2
 70
     0
  9
$DIMTAD
 70
     0
  9
$DIMZIN
 70
     8
  9
$DIMBLK
  1

  9
$DIMASO
 70
     1
  9
$DIMSHO
 70
     1
  9
$DIMPOST
  1
"
  9
$DIMAPOST
  1
"
  9
$DIMALT
 70
     0
  9
$DIMALTD
 70
     1
  9
$DIMALTF
 40
0.03937
  9
$DIMLFAC
 40
1.0
  9
$DIMTOFL
 70
     1
  9
$DIMTVP
 40
0.0
  9
$DIMTIX
 70
     0
  9
$DIMSOXD
 70
     0
  9
$DIMSAH
 70
     0
  9
$DIMBLK1
  1

  9
$DIMBLK2
  1

  9
$DIMSTYLE
  2
副本STANDARD
  9
$DIMCLRD
 70
   256
  9
$DIMCLRE
 70
   256
  9
$DIMCLRT
 70
   256
  9
$DIMTFAC
 40
1.0
  9
$DIMGAP
 40
0.3
  9
$DIMJUST
 70
     0
  9
$DIMSD1
 70
     0
  9
$DIMSD2
 70
     0
  9
$DIMTOLJ
 70
     1
  9
$DIMTZIN
 70
     8
  9
$DIMALTZ
 70
     8
  9
$DIMALTTZ
 70
     8
  9
$DIMUPT
 70
     0
  9
$DIMDEC
 70
     3
  9
$DIMTDEC
 70
     3
  9
$DIMALTU
 70
     2
  9
$DIMALTTD
 70
     1
  9
$DIMTXSTY
  7
STANDARD
  9
$DIMAUNIT
 70
     0
  9
$DIMADEC
 70
     0
  9
$DIMALTRND
 40
0.0
  9
$DIMAZIN
 70
     0
  9
$DIMDSEP
 70
    46
  9
$DIMATFIT
 70
     3
  9
$DIMFRAC
 70
     2
  9
$DIMLDRBLK
  1

  9
$DIMLUNIT
 70
     5
  9
$DIMLWD
 70
    -2
  9
$DIMLWE
 70
    -2
  9
$DIMTMOVE
 70
     2
  9
$LUNITS
 70
     2
  9
$LUPREC
 70
     4
  9
$SKETCHINC
 40
0.1
  9
$FILLETRAD
 40
0.0
  9
$AUNITS
 70
     0
  9
$AUPREC
 70
     0
  9
$MENU
  1
.
  9
$ELEVATION
 40
0.0
  9
$PELEVATION
 40
0.0
  9
$THICKNESS
 40
0.0
  9
$LIMCHECK
 70
     0
  9
$CHAMFERA
 40
0.0
  9
$CHAMFERB
 40
0.0
  9
$CHAMFERC
 40
0.0
  9
$CHAMFERD
 40
0.0
  9
$SKPOLY
 70
     0
  9
$TDCREATE
 40
2455434.724808658
  9
$TDUCREATE
 40
2455434.391475324
  9
$TDUPDATE
 40
2458562.565176563
  9
$TDUUPDATE
 40
2458562.231843230
  9
$TDINDWG
 40
0.5509975694
  9
$TDUSRTIMER
 40
0.5509805671
  9
$USRTIMER
 70
     1
  9
$ANGBASE
 50
0.0
  9
$ANGDIR
 70
     0
  9
$PDMODE
 70
     0
  9
$PDSIZE
 40
0.0
  9
$PLINEWID
 40
0.0
  9
$SPLFRAME
 70
     0
  9
$SPLINETYPE
 70
     6
  9
$SPLINESEGS
 70
     8
  9
$HANDSEED
  5
718F
  9
$SURFTAB1
 70
     6
  9
$SURFTAB2
 70
     6
  9
$SURFTYPE
 70
     6
  9
$SURFU
 70
     6
  9
$SURFV
 70
     6
  9
$UCSBASE
  2

  9
$UCSNAME
  2

  9
$UCSORG
 10
0.0
 20
0.0
 30
0.0
  9
$UCSXDIR
 10
1.0
 20
0.0
 30
0.0
  9
$UCSYDIR
 10
0.0
 20
1.0
 30
0.0
  9
$UCSORTHOREF
  2

  9
$UCSORTHOVIEW
 70
     0
  9
$UCSORGTOP
 10
0.0
 20
0.0
 30
0.0
  9
$UCSORGBOTTOM
 10
0.0
 20
0.0
 30
0.0
  9
$UCSORGLEFT
 10
0.0
 20
0.0
 30
0.0
  9
$UCSORGRIGHT
 10
0.0
 20
0.0
 30
0.0
  9
$UCSORGFRONT
 10
0.0
 20
0.0
 30
0.0
  9
$UCSORGBACK
 10
0.0
 20
0.0
 30
0.0
  9
$PUCSBASE
  2

  9
$PUCSNAME
  2

  9
$PUCSORG
 10
0.0
 20
0.0
 30
0.0
  9
$PUCSXDIR
 10
1.0
 20
0.0
 30
0.0
  9
$PUCSYDIR
 10
0.0
 20
1.0
 30
0.0
  9
$PUCSORTHOREF
  2

  9
$PUCSORTHOVIEW
 70
     0
  9
$PUCSORGTOP
 10
0.0
 20
0.0
 30
0.0
  9
$PUCSORGBOTTOM
 10
0.0
 20
0.0
 30
0.0
  9
$PUCSORGLEFT
 10
0.0
 20
0.0
 30
0.0
  9
$PUCSORGRIGHT
 10
0.0
 20
0.0
 30
0.0
  9
$PUCSORGFRONT
 10
0.0
 20
0.0
 30
0.0
  9
$PUCSORGBACK
 10
0.0
 20
0.0
 30
0.0
  9
$USERI1
 70
     0
  9
$USERI2
 70
     0
  9
$USERI3
 70
     0
  9
$USERI4
 70
     0
  9
$USERI5
 70
     0
  9
$USERR1
 40
0.0
  9
$USERR2
 40
0.0
  9
$USERR3
 40
0.0
  9
$USERR4
 40
0.0
  9
$USERR5
 40
2.5
  9
$WORLDVIEW
 70
     1
  9
$SHADEDGE
 70
     3
  9
$SHADEDIF
 70
    70
  9
$TILEMODE
 70
     1
  9
$MAXACTVP
 70
    64
  9
$PINSBASE
 10
0.0
 20
0.0
 30
0.0
  9
$PLIMCHECK
 70
     0
  9
$PEXTMIN
 10
1.000000000000000E+20
 20
1.000000000000000E+20
 30
1.000000000000000E+20
  9
$PEXTMAX
 10
-1.000000000000000E+20
 20
-1.000000000000000E+20
 30
-1.000000000000000E+20
  9
$PLIMMIN
 10
0.0
 20
0.0
  9
$PLIMMAX
 10
12.0
 20
9.0
  9
$UNITMODE
 70
     0
  9
$VISRETAIN
 70
     1
  9
$PLINEGEN
 70
     0
  9
$PSLTSCALE
 70
     1
  9
$TREEDEPTH
 70
  3020
  9
$CMLSTYLE
  2
Standard
  9
$CMLJUST
 70
     0
  9
$CMLSCALE
 40
1.0
  9
$PROXYGRAPHICS
 70
     1
  9
$MEASUREMENT
 70
     0
  9
$CELWEIGHT
370
    -1
  9
$ENDCAPS
280
     0
  9
$JOINSTYLE
280
     0
  9
$LWDISPLAY
290
     0
  9
$INSUNITS
 70
     0
  9
$HYPERLINKBASE
  1

  9
$STYLESHEET
  1

  9
$XEDIT
290
     1
  9
$CEPSNTYPE
380
     0
  9
$PSTYLEMODE
290
     1
  9
$FINGERPRINTGUID
  2
{7BAC09DB-C4D0-41DB-8C07-4C6808ADD930}
  9
$VERSIONGUID
  2
{72F567AF-F536-4782-8B6D-1811C9B330E7}
  9
$EXTNAMES
290
     1
  9
$PSVPSCALE
 40
0.0
  9
$OLESTARTUP
290
     0
  0
ENDSEC
  0
SECTION
  2
CLASSES
  0
CLASS
  1
ACDBDICTIONARYWDFLT
  2
AcDbDictionaryWithDefault
  3
ObjectDBX Classes
 90
        0
280
     0
281
     0
  0
CLASS
  1
MATERIAL
  2
AcDbMaterial
  3
ObjectDBX Classes
 90
     1153
280
     0
281
     0
  0
CLASS
  1
VISUALSTYLE
  2
AcDbVisualStyle
  3
ObjectDBX Classes
 90
     4095
280
     0
281
     0
  0
CLASS
  1
SCALE
  2
AcDbScale
  3
ObjectDBX Classes
 90
     1153
280
     0
281
     0
  0
CLASS
  1
TABLESTYLE
  2
AcDbTableStyle
  3
ObjectDBX Classes
 90
     4095
280
     0
281
     0
  0
CLASS
  1
MLEADERSTYLE
  2
AcDbMLeaderStyle
  3
ACDB_MLEADERSTYLE_CLASS
 90
     4095
280
     0
281
     0
  0
CLASS
  1
VLO-VL
  2
vlo_VL
  3
VL|AutoLISP based application
 90
      129
280
     0
281
     0
  0
CLASS
  1
DICTIONARYVAR
  2
AcDbDictionaryVar
  3
ObjectDBX Classes
 90
        0
280
     0
281
     0
  0
CLASS
  1
CELLSTYLEMAP
  2
AcDbCellStyleMap
  3
ObjectDBX Classes
 90
     1152
280
     0
281
     0
  0
CLASS
  1
DIMASSOC
  2
AcDbDimAssoc
  3
"AcDbDimAssoc|Product Desc:     AcDim ARX App For Dimension|Company:          Autodesk, Inc.|WEB Address:      www.autodesk.com"
 90
        0
280
     0
281
     0
  0
CLASS
  1
SORTENTSTABLE
  2
AcDbSortentsTable
  3
ObjectDBX Classes
 90
        0
280
     0
281
     0
  0
CLASS
  1
ACDBPLACEHOLDER
  2
AcDbPlaceHolder
  3
ObjectDBX Classes
 90
        0
280
     0
281
     0
  0
CLASS
  1
LAYOUT
  2
AcDbLayout
  3
ObjectDBX Classes
 90
        0
280
     0
281
     0
  0
ENDSEC
  0
SECTION
  2
TABLES
  0
TABLE
  2
VPORT
  5
5F02
330
0
100
AcDbSymbolTable
 70
     1
  0
VPORT
  5
5F73
330
5F02
100
AcDbSymbolTableRecord
100
AcDbViewportTableRecord
  2
*ACTIVE
 70
     0
 10
0.0
 20
0.0
 11
1.0
 21
1.0
 12
1104.459060592346
 22
137.7990054867156
 13
0.0
 23
0.0
 14
0.5
 24
0.5
 15
0.5
 25
0.5
 16
0.0
 26
0.0
 36
1.0
 17
0.0
 27
0.0
 37
0.0
 40
124.9233190434474
 41
1.522756827048114
 42
50.0
 43
0.0
 44
0.0
 50
0.0
 51
0.0
 71
     0
 72
  1000
 73
     1
 74
     3
 75
     0
 76
     0
 77
     0
 78
     0
281
     0
 65
     1
110
0.0
120
0.0
130
0.0
111
1.0
121
0.0
131
0.0
112
0.0
122
1.0
132
0.0
 79
     0
146
0.0
  0
ENDTAB
  0
TABLE
  2
LTYPE
  5
5EFF
330
0
100
AcDbSymbolTable
 70
    11
  0
LTYPE
  5
5F5C
330
5EFF
100
AcDbSymbolTableRecord
100
AcDbLinetypeTableRecord
  2
ByBlock
 70
     0
  3

 72
    65
 73
     0
 40
0.0
  0
LTYPE
  5
5F5D
330
5EFF
100
AcDbSymbolTableRecord
100
AcDbLinetypeTableRecord
  2
ByLayer
 70
     0
  3

 72
    65
 73
     0
 40
0.0
  0
LTYPE
  5
5F5E
330
5EFF
100
AcDbSymbolTableRecord
100
AcDbLinetypeTableRecord
  2
CONTINUOUS
 70
     0
  3
Solid line
 72
    65
 73
     0
 40
0.0
  0
LTYPE
  5
5F74
330
5EFF
100
AcDbSymbolTableRecord
100
AcDbLinetypeTableRecord
  2
CENTER2
 70
     0
  3
Center (.5x) ___ _ ___ _ ___ _ ___ _ ___ _ ___
 72
    65
 73
     4
 40
28.575
 49
19.05
 74
     0
 49
-3.174999999999998
 74
     0
 49
3.174999999999998
 74
     0
 49
-3.174999999999998
 74
     0
  0
LTYPE
  5
5F75
330
5EFF
100
AcDbSymbolTableRecord
100
AcDbLinetypeTableRecord
  2
HIDDEN2
 70
     0
  3
Hidden (.5x) _ _ _ _ _ _ _ _ _ _ _ _ _ _ _ _ _
 72
    65
 73
     2
 40
4.762499999999998
 49
3.174999999999998
 74
     0
 49
-1.587499999999999
 74
     0
  0
ENDTAB
  0
TABLE
  2
LAYER
  5
5EFC
102
{ACAD_XDICTIONARY
360
61B7
102
}
330
0
100
AcDbSymbolTable
 70
    10
  0
LAYER
  5
5F56
102
{ACAD_XDICTIONARY
360
60F4
102
}
330
5EFC
100
AcDbSymbolTableRecord
100
AcDbLayerTableRecord
  2
0
 70
     0
 62
     7
  6
CONTINUOUS
370
    -3
390
5F09
  0
LAYER
  5
5F72
102
{ACAD_XDICTIONARY
360
60F6
102
}
330
5EFC
100
AcDbSymbolTableRecord
100
AcDbLayerTableRecord
  2
标注
 70
     0
 62
    80
  6
CONTINUOUS
370
    -3
390
5F09
  0
LAYER
  5
5F7D
102
{ACAD_XDICTIONARY
360
60F8
102
}
330
5EFC
100
AcDbSymbolTableRecord
100
AcDbLayerTableRecord
  2
中心线
 70
     0
 62
     1
  6
CENTER2
370
    -3
390
5F09
  0
LAYER
  5
5F7E
102
{ACAD_XDICTIONARY
360
60FA
102
}
330
5EFC
100
AcDbSymbolTableRecord
100
AcDbLayerTableRecord
  2
虚线
 70
     0
 62
     4
  6
HIDDEN2
370
    -3
390
5F09
  0
LAYER
  5
5F7F
330
5EFC
100
AcDbSymbolTableRecord
100
AcDbLayerTableRecord
  2
DEFPOINTS
 70
     0
 62
     7
  6
CONTINUOUS
290
     0
370
    -3
390
5F09
  0
LAYER
  5
5F80
102
{ACAD_XDICTIONARY
360
60FC
102
}
330
5EFC
100
AcDbSymbolTableRecord
100
AcDbLayerTableRecord
  2
细实线
 70
     0
 62
     7
  6
CONTINUOUS
370
    -3
390
5F09
  0
LAYER
  5
61B1
102
{ACAD_XDICTIONARY
360
61B2
102
}
330
5EFC
100
AcDbSymbolTableRecord
100
AcDbLayerTableRecord
  2
粗实线
 70
     0
 62
     7
  6
CONTINUOUS
370
    35
390
5F09
  0
LAYER
  5
6B9C
102
{ACAD_XDICTIONARY
360
6B9D
102
}
330
5EFC
100
AcDbSymbolTableRecord
100
AcDbLayerTableRecord
  2
截面层
 70
     0
 62
     6
  6
CONTINUOUS
370
    13
390
5F09
  0
ENDTAB
  0
TABLE
  2
STYLE
  5
5EFD
330
0
100
AcDbSymbolTable
 70
     3
  0
STYLE
  5
5F57
330
5EFD
100
AcDbSymbolTableRecord
100
AcDbTextStyleTableRecord
  2
STANDARD
 70
     0
 40
0.0
 41
1.0
 50
0.0
 71
     0
 42
0.2
  3
arial.ttf
  4

1001
ACAD
1000
Arial
1071
       34
  0
ENDTAB
  0
TABLE
  2
VIEW
  5
5F00
330
0
100
AcDbSymbolTable
 70
     0
  0
ENDTAB
  0
TABLE
  2
UCS
  5
5F01
330
0
100
AcDbSymbolTable
 70
     0
  0
ENDTAB
  0
TABLE
  2
APPID
  5
5F03
330
0
100
AcDbSymbolTable
 70
    29
  0
APPID
  5
5F58
330
5F03
100
AcDbSymbolTableRecord
100
AcDbRegAppTableRecord
  2
ACAD
 70
     0
  0
APPID
  5
5F5F
330
5F03
100
AcDbSymbolTableRecord
100
AcDbRegAppTableRecord
  2
ACADANNOTATIVE
 70
     0
  0
APPID
  5
5F69
330
5F03
100
AcDbSymbolTableRecord
100
AcDbRegAppTableRecord
  2
ACAD_MLEADERVER
 70
     0
  0
APPID
  5
5F84
330
5F03
100
AcDbSymbolTableRecord
100
AcDbRegAppTableRecord
  2
ACAECLAYERSTANDARD
 70
     0
  0
APPID
  5
5F85
330
5F03
100
AcDbSymbolTableRecord
100
AcDbRegAppTableRecord
  2
ACAD_DSTYLE_DIMEXT_LENGTH
 70
     0
  0
APPID
  5
5F86
330
5F03
100
AcDbSymbolTableRecord
100
AcDbRegAppTableRecord
  2
ACAD_DSTYLE_DIMEXT_ENABLED
 70
     0
  0
APPID
  5
5F87
330
5F03
100
AcDbSymbolTableRecord
100
AcDbRegAppTableRecord
  2
ACAD_DSTYLE_DIMJOGGED_JOGA
 70
     0
  0
APPID
  5
5F88
330
5F03
100
AcDbSymbolTableRecord
100
AcDbRegAppTableRecord
  2
ACAD_DSTYLE_DIMARC_LENGTH_
 70
     0
  0
APPID
  5
5F89
330
5F03
100
AcDbSymbolTableRecord
100
AcDbRegAppTableRecord
  2
ACAD_PSEXT
 70
     0
  0
APPID
  5
5F8A
330
5F03
100
AcDbSymbolTableRecord
100
AcDbRegAppTableRecord
  2
MCAD_NO_VIS
 70
     0
  0
APPID
  5
5F8B
330
5F03
100
AcDbSymbolTableRecord
100
AcDbRegAppTableRecord
  2
ACAD_TEMP_GRAPHIC
 70
     0
  0
APPID
  5
5F8C
330
5F03
100
AcDbSymbolTableRecord
100
AcDbRegAppTableRecord
  2
AD_DRAW
 70
     0
  0
APPID
  5
5F8D
330
5F03
100
AcDbSymbolTableRecord
100
AcDbRegAppTableRecord
  2
ACATTRIBSERVICES
 70
     0
  0
APPID
  5
5F8E
330
5F03
100
AcDbSymbolTableRecord
100
AcDbRegAppTableRecord
  2
DESIGNERASSEMBLIES
 70
     0
  0
APPID
  5
5F8F
330
5F03
100
AcDbSymbolTableRecord
100
AcDbRegAppTableRecord
  2
ACADM_DIM_EDIT
 70
     0
  0
APPID
  5
5F90
330
5F03
100
AcDbSymbolTableRecord
100
AcDbRegAppTableRecord
  2
AMDT_DM_ADJ
 70
     0
  0
APPID
  5
5F91
330
5F03
100
AcDbSymbolTableRecord
100
AcDbRegAppTableRecord
  2
ACAD_DSTYLE_DIMJAG
 70
     0
  0
APPID
  5
5F92
330
5F03
100
AcDbSymbolTableRecord
100
AcDbRegAppTableRecord
  2
ACAD_DSTYLE_DIMBREAK
 70
     0
  0
APPID
  5
5F93
330
5F03
100
AcDbSymbolTableRecord
100
AcDbRegAppTableRecord
  2
ACAD_DSTYLE_DIMTALN
 70
     0
  0
APPID
  5
5F94
330
5F03
100
AcDbSymbolTableRecord
100
AcDbRegAppTableRecord
  2
GENIUS_GENODEF_13
 70
     0
  0
APPID
  5
5F95
330
5F03
100
AcDbSymbolTableRecord
100
AcDbRegAppTableRecord
  2
GENIUS_GENOBJ-N-FIL_13
 70
     0
  0
APPID
  5
5F96
330
5F03
100
AcDbSymbolTableRecord
100
AcDbRegAppTableRecord
  2
ACAD_EXEMPT_FROM_CAD_STANDARDS
 70
     0
  0
APPID
  5
5F97
330
5F03
100
AcDbSymbolTableRecord
100
AcDbRegAppTableRecord
  2
ACAD_DSTYLE_DIM_LINETYPE
 70
     0
  0
APPID
  5
5F98
330
5F03
100
AcDbSymbolTableRecord
100
AcDbRegAppTableRecord
  2
ACAD_DSTYLE_DIM_EXT1_LINETYPE
 70
     0
  0
APPID
  5
5F99
330
5F03
100
AcDbSymbolTableRecord
100
AcDbRegAppTableRecord
  2
ACAD_DSTYLE_DIM_EXT2_LINETYPE
 70
     0
  0
APPID
  5
5F9A
330
5F03
100
AcDbSymbolTableRecord
100
AcDbRegAppTableRecord
  2
ACAD_DSTYLE_DIMRADIAL_EXTENSION
 70
     0
  0
APPID
  5
6488
330
5F03
100
AcDbSymbolTableRecord
100
AcDbRegAppTableRecord
  2
AcadAnnoPO
 70
     0
  0
APPID
  5
6F89
330
5F03
100
AcDbSymbolTableRecord
100
AcDbRegAppTableRecord
  2
GENIUS_GENFIL_13
 70
     0
  0
APPID
  5
6F8A
330
5F03
100
AcDbSymbolTableRecord
100
AcDbRegAppTableRecord
  2
GENIUS_GENOBJ-N-CHA_13
 70
     0
  0
ENDTAB
  0
TABLE
  2
DIMSTYLE
  5
5F04
330
0
100
AcDbSymbolTable
 70
    26
100
AcDbDimStyleTable
 71
     2
340
5F9B
340
5F59
  0
DIMSTYLE
105
5F59
102
{ACAD_REACTORS
330
708B
102
}
330
5F04
100
AcDbSymbolTableRecord
100
AcDbDimStyleTableRecord
  2
STANDARD
 70
     0
 41
0.65
 73
     0
 74
     0
140
0.65
176
     3
177
     3
178
     3
271
     3
272
     3
276
     2
277
     5
279
     2
284
     8
285
     8
286
     8
340
5F57
371
    13
372
    13
1001
ACAD_DSTYLE_DIMJAG
1070
   388
1040
1.5
1001
ACAD_DSTYLE_DIMTALN
1070
   392
1070
     0
1001
ACAD_DSTYLE_DIM_LINETYPE
1070
   380
1005
5F5E
1001
ACAD_DSTYLE_DIM_EXT1_LINETYPE
1070
   381
1005
5F5E
1001
ACAD_DSTYLE_DIM_EXT2_LINETYPE
1070
   382
1005
5F5E
  0
DIMSTYLE
105
5F9B
102
{ACAD_REACTORS
330
707D
330
70C2
330
70CC
330
70DA
330
70E8
330
70F6
330
7117
330
7127
330
7135
330
7143
102
}
330
5F04
100
AcDbSymbolTableRecord
100
AcDbDimStyleTableRecord
  2
副本STANDARD
 70
     0
  3
"
  4
"
 41
0.65
 42
0.88
 43
0.015
 44
0.32
 73
     0
 74
     0
 78
     8
140
0.65
143
0.03937
147
0.3
171
     1
172
     1
176
   256
177
   256
178
   256
271
     3
272
     3
274
     1
276
     2
277
     5
279
     2
284
     8
285
     8
286
     8
340
5F57
1001
ACAD_DSTYLE_DIMJAG
1070
   388
1040
1.5
1001
ACAD_DSTYLE_DIMTALN
1070
   392
1070
     0
  0
DIMSTYLE
105
6F86
330
5F04
100
AcDbSymbolTableRecord
100
AcDbDimStyleTableRecord
  2
中14+
 70
     0
  4
"
 41
14.0
 42
10.0
 43
1.0
 44
2.0
 73
     0
 74
     0
 78
     8
140
14.0
141
2.0
143
0.03937007874016
147
5.0
171
     3
172
     1
177
   256
179
     1
271
     1
272
     1
273
     7
274
     3
278
    44
283
     0
284
     8
340
5F57
1001
ACAD_DSTYLE_DIMBREAK
1070
   391
1040
0.2
1001
ACAD_DSTYLE_DIMJAG
1070
   388
1040
1.5
1001
ACAD_DSTYLE_DIMTALN
1070
   392
1070
     0
  0
DIMSTYLE
105
6F87
330
5F04
100
AcDbSymbolTableRecord
100
AcDbDimStyleTableRecord
  2
毫米英寸Standard
 70
     0
  3
mm
  4
"
 41
14.0
 42
20.0
 44
8.0
 73
     0
 74
     0
 78
     8
 79
     2
140
14.0
143
0.03937
147
8.0
170
     1
171
     3
172
     1
176
   256
177
   256
178
   256
179
     1
271
     1
272
     1
273
     7
274
     3
278
    44
340
5F57
1001
ACAD_DSTYLE_DIMBREAK
1070
   391
1040
0.125
1001
ACAD_DSTYLE_DIMJAG
1070
   388
1040
1.5
1001
ACAD_DSTYLE_DIMTALN
1070
   392
1070
     0
  0
DIMSTYLE
105
6F88
330
5F04
100
AcDbSymbolTableRecord
100
AcDbDimStyleTableRecord
  2
放大3倍
 70
     0
  4
"
 41
14.0
 42
10.0
 43
1.0
 44
2.0
 73
     0
 74
     0
 78
     8
140
14.0
141
2.0
143
0.03937007874016
144
0.333333333333333
147
5.0
171
     3
172
     1
176
     3
177
   256
178
     3
179
     1
271
     1
272
     1
273
     7
274
     3
278
    44
283
     0
284
     8
340
5F57
371
     9
372
     9
1001
ACAD_DSTYLE_DIMBREAK
1070
   391
1040
0.2
1001
ACAD_DSTYLE_DIMJAG
1070
   388
1040
1.5
1001
ACAD_DSTYLE_DIMTALN
1070
   392
1070
     0
1001
ACAD_DSTYLE_DIM_LINETYPE
1070
   380
1005
5F5E
1001
ACAD_DSTYLE_DIM_EXT1_LINETYPE
1070
   381
1005
5F5E
1001
ACAD_DSTYLE_DIM_EXT2_LINETYPE
1070
   382
1005
5F5E
  0
ENDTAB
  0
TABLE
  2
BLOCK_RECORD
  5
5EFB
330
0
100
AcDbSymbolTable
 70
   259
  0
BLOCK_RECORD
  5
5F6E
102
{ACAD_XDICTIONARY
360
654F
102
}
330
5EFB
100
AcDbSymbolTableRecord
100
AcDbBlockTableRecord
  2
*Model_Space
340
5F71
  0
BLOCK_RECORD
  5
5F6A
330
5EFB
100
AcDbSymbolTableRecord
100
AcDbBlockTableRecord
  2
*Paper_Space
340
5F6D
  0
BLOCK_RECORD
  5
6D74
330
5EFB
100
AcDbSymbolTableRecord
100
AcDbBlockTableRecord
  2
*D230
340
0
  0
BLOCK_RECORD
  5
6D82
330
5EFB
100
AcDbSymbolTableRecord
100
AcDbBlockTableRecord
  2
*D231
340
0
  0
BLOCK_RECORD
  5
6D90
330
5EFB
100
AcDbSymbolTableRecord
100
AcDbBlockTableRecord
  2
*D232
340
0
  0
BLOCK_RECORD
  5
6DAF
330
5EFB
100
AcDbSymbolTableRecord
100
AcDbBlockTableRecord
  2
*D233
340
0
  0
BLOCK_RECORD
  5
6DB9
330
5EFB
100
AcDbSymbolTableRecord
100
AcDbBlockTableRecord
  2
*D234
340
0
  0
BLOCK_RECORD
  5
6DC3
330
5EFB
100
AcDbSymbolTableRecord
100
AcDbBlockTableRecord
  2
*D235
340
0
  0
BLOCK_RECORD
  5
6DF7
330
5EFB
100
AcDbSymbolTableRecord
100
AcDbBlockTableRecord
  2
*D236
340
0
  0
BLOCK_RECORD
  5
6E05
330
5EFB
100
AcDbSymbolTableRecord
100
AcDbBlockTableRecord
  2
*D237
340
0
  0
BLOCK_RECORD
  5
6E13
330
5EFB
100
AcDbSymbolTableRecord
100
AcDbBlockTableRecord
  2
*D238
340
0
  0
BLOCK_RECORD
  5
6E21
330
5EFB
100
AcDbSymbolTableRecord
100
AcDbBlockTableRecord
  2
*D239
340
0
  0
BLOCK_RECORD
  5
6E2F
330
5EFB
100
AcDbSymbolTableRecord
100
AcDbBlockTableRecord
  2
*D240
340
0
  0
BLOCK_RECORD
  5
6E3D
330
5EFB
100
AcDbSymbolTableRecord
100
AcDbBlockTableRecord
  2
*D241
340
0
  0
BLOCK_RECORD
  5
6E4B
330
5EFB
100
AcDbSymbolTableRecord
100
AcDbBlockTableRecord
  2
*D242
340
0
  0
BLOCK_RECORD
  5
6E59
330
5EFB
100
AcDbSymbolTableRecord
100
AcDbBlockTableRecord
  2
*D243
340
0
  0
BLOCK_RECORD
  5
6E7B
330
5EFB
100
AcDbSymbolTableRecord
100
AcDbBlockTableRecord
  2
*D244
340
0
  0
BLOCK_RECORD
  5
6E89
330
5EFB
100
AcDbSymbolTableRecord
100
AcDbBlockTableRecord
  2
*D245
340
0
  0
BLOCK_RECORD
  5
6E93
330
5EFB
100
AcDbSymbolTableRecord
100
AcDbBlockTableRecord
  2
*D246
340
0
  0
BLOCK_RECORD
  5
707E
330
5EFB
100
AcDbSymbolTableRecord
100
AcDbBlockTableRecord
  2
*D248
340
0
  0
BLOCK_RECORD
  5
708C
330
5EFB
100
AcDbSymbolTableRecord
100
AcDbBlockTableRecord
  2
*D249
340
0
  0
BLOCK_RECORD
  5
70C3
330
5EFB
100
AcDbSymbolTableRecord
100
AcDbBlockTableRecord
  2
*D250
340
0
  0
BLOCK_RECORD
  5
70CD
330
5EFB
100
AcDbSymbolTableRecord
100
AcDbBlockTableRecord
  2
*D251
340
0
  0
BLOCK_RECORD
  5
70DB
330
5EFB
100
AcDbSymbolTableRecord
100
AcDbBlockTableRecord
  2
*D252
340
0
  0
BLOCK_RECORD
  5
70E9
330
5EFB
100
AcDbSymbolTableRecord
100
AcDbBlockTableRecord
  2
*D253
340
0
  0
BLOCK_RECORD
  5
70F7
330
5EFB
100
AcDbSymbolTableRecord
100
AcDbBlockTableRecord
  2
*D254
340
0
  0
BLOCK_RECORD
  5
7118
330
5EFB
100
AcDbSymbolTableRecord
100
AcDbBlockTableRecord
  2
*D255
340
0
  0
BLOCK_RECORD
  5
7128
330
5EFB
100
AcDbSymbolTableRecord
100
AcDbBlockTableRecord
  2
*D256
340
0
  0
BLOCK_RECORD
  5
7136
330
5EFB
100
AcDbSymbolTableRecord
100
AcDbBlockTableRecord
  2
*D257
340
0
  0
BLOCK_RECORD
  5
7144
330
5EFB
100
AcDbSymbolTableRecord
100
AcDbBlockTableRecord
  2
*D258
340
0
  0
ENDTAB
  0
ENDSEC
  0
SECTION
  2
BLOCKS
  0
BLOCK
  5
5F6F
330
5F6E
100
AcDbEntity
  8
0
100
AcDbBlockBegin
  2
*Model_Space
 70
     0
 10
0.0
 20
0.0
 30
0.0
  3
*Model_Space
  1

  0
ENDBLK
  5
5F70
330
5F6E
100
AcDbEntity
  8
0
100
AcDbBlockEnd
  0
BLOCK
  5
5F6B
330
5F6A
100
AcDbEntity
 67
     1
  8
0
100
AcDbBlockBegin
  2
*Paper_Space
 70
     0
 10
0.0
 20
0.0
 30
0.0
  3
*Paper_Space
  1

  0
ENDBLK
  5
5F6C
330
5F6A
100
AcDbEntity
 67
     1
  8
0
100
AcDbBlockEnd
  0
BLOCK
  5
6D75
330
6D74
100
AcDbEntity
  8
0
100
AcDbBlockBegin
  2
*D230
 70
     1
 10
0.0
 20
0.0
 30
0.0
  3
*D230
  1

  0
LINE
  5
6EA8
330
6D74
100
AcDbEntity
  8
标注
370
    -2
100
AcDbLine
 10
1010.232169094564
 20
111.8880736471611
 30
0.0
 11
1010.232169094564
 21
109.3331919395887
 31
0.0
  0
LINE
  5
6EA9
330
6D74
100
AcDbEntity
  8
标注
370
    -2
100
AcDbLine
 10
1038.889649409404
 20
111.8880736471611
 30
0.0
 11
1038.889649409404
 21
109.3331919395887
 31
0.0
  0
LINE
  5
6EAA
330
6D74
100
AcDbEntity
  8
标注
370
    -2
100
AcDbLine
 10
1010.882169094564
 20
109.6531919395888
 30
0.0
 11
1022.872010889092
 21
109.6531919395888
 31
0.0
  0
LINE
  5
6EAB
330
6D74
100
AcDbEntity
  8
标注
370
    -2
100
AcDbLine
 10
1038.239649409404
 20
109.6531919395888
 30
0.0
 11
1026.249807614876
 21
109.6531919395888
 31
0.0
  0
SOLID
  5
6EAC
330
6D74
100
AcDbEntity
  8
标注
100
AcDbTrace
 10
1010.882169094564
 20
109.7615252729221
 30
0.0
 11
1010.882169094564
 21
109.5448586062554
 31
0.0
 12
1010.232169094564
 22
109.6531919395888
 32
0.0
 13
1010.232169094564
 23
109.6531919395888
 33
0.0
  0
SOLID
  5
6EAD
330
6D74
100
AcDbEntity
  8
标注
100
AcDbTrace
 10
1038.239649409404
 20
109.7615252729221
 30
0.0
 11
1038.239649409404
 21
109.5448586062554
 31
0.0
 12
1038.889649409404
 22
109.6531919395888
 32
0.0
 13
1038.889649409404
 23
109.6531919395888
 33
0.0
  0
MTEXT
  5
6EAE
330
6D74
100
AcDbEntity
  8
标注
100
AcDbMText
 10
1024.560909251984
 20
109.6531919395888
 30
0.0
 40
0.65
 41
0.0
 71
     5
 72
     1
  1
\A1;28 5/8"
 73
     1
 44
1.0
1001
ACAD
1000
MTEXTBEGIN
1070
    73
1070
     1
1070
    44
1040
1.0
1070
    74
1070
     0
1000
MTEXTEND
  0
POINT
  5
6EAF
330
6D74
100
AcDbEntity
  8
DEFPOINTS
 62
     0
100
AcDbPoint
 10
1010.232169094564
 20
112.7680736471611
 30
0.0
  0
POINT
  5
6EB0
330
6D74
100
AcDbEntity
  8
DEFPOINTS
 62
     0
100
AcDbPoint
 10
1038.889649409404
 20
112.7680736471611
 30
0.0
  0
POINT
  5
6EB1
330
6D74
100
AcDbEntity
  8
DEFPOINTS
 62
     0
100
AcDbPoint
 10
1038.889649409404
 20
109.6531919395888
 30
0.0
  0
ENDBLK
  5
6D76
330
6D74
100
AcDbEntity
  8
0
100
AcDbBlockEnd
  0
BLOCK
  5
6D83
330
6D82
100
AcDbEntity
  8
0
100
AcDbBlockBegin
  2
*D231
 70
     1
 10
0.0
 20
0.0
 30
0.0
  3
*D231
  1

  0
LINE
  5
6EB2
330
6D82
100
AcDbEntity
  8
标注
370
    -2
100
AcDbLine
 10
1039.297208464536
 20
112.2956327022929
 30
0.0
 11
1041.352195043713
 21
112.2956327022929
 31
0.0
  0
LINE
  5
6EB3
330
6D82
100
AcDbEntity
  8
标注
370
    -2
100
AcDbLine
 10
1039.297208464536
 20
128.4531130171908
 30
0.0
 11
1041.352195043713
 21
128.4531130171908
 31
0.0
  0
LINE
  5
6EB4
330
6D82
100
AcDbEntity
  8
标注
370
    -2
100
AcDbLine
 10
1041.032195043713
 20
112.9456327022929
 30
0.0
 11
1041.032195043713
 21
118.7216102403694
 31
0.0
  0
LINE
  5
6EB5
330
6D82
100
AcDbEntity
  8
标注
370
    -2
100
AcDbLine
 10
1041.032195043713
 20
127.8031130171908
 30
0.0
 11
1041.032195043713
 21
122.0271354791143
 31
0.0
  0
SOLID
  5
6EB6
330
6D82
100
AcDbEntity
  8
标注
100
AcDbTrace
 10
1040.92386171038
 20
112.9456327022929
 30
0.0
 11
1041.140528377046
 21
112.9456327022929
 31
0.0
 12
1041.032195043713
 22
112.2956327022929
 32
0.0
 13
1041.032195043713
 23
112.2956327022929
 33
0.0
  0
SOLID
  5
6EB7
330
6D82
100
AcDbEntity
  8
标注
100
AcDbTrace
 10
1040.92386171038
 20
127.8031130171908
 30
0.0
 11
1041.140528377046
 21
127.8031130171908
 31
0.0
 12
1041.032195043713
 22
128.4531130171908
 32
0.0
 13
1041.032195043713
 23
128.4531130171908
 33
0.0
  0
MTEXT
  5
6EB8
330
6D82
100
AcDbEntity
  8
标注
100
AcDbMText
 10
1041.032195043713
 20
120.374372859742
 30
0.0
 40
0.65
 41
0.0
 71
     5
 72
     1
  1
\A1;16 1/8"
 11
0.0000000000000001
 21
1.0
 31
0.0
 73
     1
 44
1.0
1001
ACAD
1000
MTEXTBEGIN
1070
    73
1070
     1
1070
    44
1040
1.0
1070
    74
1070
     0
1000
MTEXTEND
  0
POINT
  5
6EB9
330
6D82
100
AcDbEntity
  8
DEFPOINTS
 62
     0
100
AcDbPoint
 10
1038.417208464536
 20
112.2956327022929
 30
0.0
  0
POINT
  5
6EBA
330
6D82
100
AcDbEntity
  8
DEFPOINTS
 62
     0
100
AcDbPoint
 10
1038.417208464536
 20
128.4531130171908
 30
0.0
  0
POINT
  5
6EBB
330
6D82
100
AcDbEntity
  8
DEFPOINTS
 62
     0
100
AcDbPoint
 10
1041.032195043713
 20
128.4531130171908
 30
0.0
  0
ENDBLK
  5
6D84
330
6D82
100
AcDbEntity
  8
0
100
AcDbBlockEnd
  0
BLOCK
  5
6D91
330
6D90
100
AcDbEntity
  8
0
100
AcDbBlockBegin
  2
*D232
 70
     1
 10
0.0
 20
0.0
 30
0.0
  3
*D232
  1

  0
LINE
  5
6EBC
330
6D90
100
AcDbEntity
  8
标注
370
    -2
100
AcDbLine
 10
1009.824610039433
 20
112.2956327022929
 30
0.0
 11
1007.242350226264
 21
112.2956327022929
 31
0.0
  0
LINE
  5
6EBD
330
6D90
100
AcDbEntity
  8
标注
370
    -2
100
AcDbLine
 10
1009.824610039433
 20
130.4531130171908
 30
0.0
 11
1007.242350226264
 21
130.4531130171908
 31
0.0
  0
LINE
  5
6EBE
330
6D90
100
AcDbEntity
  8
标注
370
    -2
100
AcDbLine
 10
1007.562350226264
 20
112.9456327022929
 30
0.0
 11
1007.562350226264
 21
119.7216102403694
 31
0.0
  0
LINE
  5
6EBF
330
6D90
100
AcDbEntity
  8
标注
370
    -2
100
AcDbLine
 10
1007.562350226264
 20
129.8031130171908
 30
0.0
 11
1007.562350226264
 21
123.0271354791143
 31
0.0
  0
SOLID
  5
6EC0
330
6D90
100
AcDbEntity
  8
标注
100
AcDbTrace
 10
1007.45401689293
 20
112.9456327022929
 30
0.0
 11
1007.670683559597
 21
112.9456327022929
 31
0.0
 12
1007.562350226264
 22
112.2956327022929
 32
0.0
 13
1007.562350226264
 23
112.2956327022929
 33
0.0
  0
SOLID
  5
6EC1
330
6D90
100
AcDbEntity
  8
标注
100
AcDbTrace
 10
1007.45401689293
 20
129.8031130171908
 30
0.0
 11
1007.670683559597
 21
129.8031130171908
 31
0.0
 12
1007.562350226264
 22
130.4531130171908
 32
0.0
 13
1007.562350226264
 23
130.4531130171908
 33
0.0
  0
MTEXT
  5
6EC2
330
6D90
100
AcDbEntity
  8
标注
100
AcDbMText
 10
1007.562350226264
 20
121.374372859742
 30
0.0
 40
0.65
 41
0.0
 71
     5
 72
     1
  1
\A1;18 1/8"
 11
0.0000000000000001
 21
1.0
 31
0.0
 73
     1
 44
1.0
1001
ACAD
1000
MTEXTBEGIN
1070
    73
1070
     1
1070
    44
1040
1.0
1070
    74
1070
     0
1000
MTEXTEND
  0
POINT
  5
6EC3
330
6D90
100
AcDbEntity
  8
DEFPOINTS
 62
     0
100
AcDbPoint
 10
1010.704610039433
 20
112.2956327022929
 30
0.0
  0
POINT
  5
6EC4
330
6D90
100
AcDbEntity
  8
DEFPOINTS
 62
     0
100
AcDbPoint
 10
1010.704610039433
 20
130.4531130171908
 30
0.0
  0
POINT
  5
6EC5
330
6D90
100
AcDbEntity
  8
DEFPOINTS
 62
     0
100
AcDbPoint
 10
1007.562350226264
 20
130.4531130171908
 30
0.0
  0
ENDBLK
  5
6D92
330
6D90
100
AcDbEntity
  8
0
100
AcDbBlockEnd
  0
BLOCK
  5
6DB0
330
6DAF
100
AcDbEntity
  8
0
100
AcDbBlockBegin
  2
*D233
 70
     1
 10
0.0
 20
0.0
 30
0.0
  3
*D233
  1

  0
LINE
  5
6EC6
330
6DAF
100
AcDbEntity
  8
标注
370
    -2
100
AcDbLine
 10
1009.847727533964
 20
112.0430729253927
 30
0.0
 11
1009.351511112873
 21
111.6232285930035
 31
0.0
  0
MTEXT
  5
6EC7
330
6DAF
100
AcDbEntity
  8
标注
100
AcDbMText
 10
1008.121422579357
 20
111.0360046414869
 30
0.0
 40
0.65
 41
0.0
 71
     5
 72
     1
  1
\A1;4-R1/2"
 11
0.7634098786019736
 21
0.6459143575218933
 31
0.0
 73
     1
 44
1.0
1001
ACAD
1000
MTEXTBEGIN
1070
    73
1070
     1
1070
    44
1040
1.0
1070
    74
1070
     0
1000
MTEXTEND
  0
LINE
  5
6EC8
330
6DAF
100
AcDbEntity
  8
标注
370
    -2
100
AcDbLine
 10
1010.704610039433
 20
112.7680736471612
 30
0.0
 11
1010.343943955055
 21
112.462917257782
 31
0.0
  0
SOLID
  5
6EC9
330
6DAF
100
AcDbEntity
  8
标注
100
AcDbTrace
 10
1009.777753478566
 20
112.1257756622412
 30
0.0
 11
1009.917701589362
 21
111.9603701885441
 31
0.0
 12
1010.343943955055
 22
112.462917257782
 32
0.0
 13
1010.343943955055
 23
112.462917257782
 33
0.0
  0
POINT
  5
6ECA
330
6DAF
100
AcDbEntity
  8
DEFPOINTS
 62
     0
100
AcDbPoint
 10
1010.343943955055
 20
112.462917257782
 30
0.0
  0
POINT
  5
6ECB
330
6DAF
100
AcDbEntity
  8
DEFPOINTS
 62
     0
100
AcDbPoint
 10
1010.704610039433
 20
112.7680736471612
 30
0.0
  0
ENDBLK
  5
6DB1
330
6DAF
100
AcDbEntity
  8
0
100
AcDbBlockEnd
  0
BLOCK
  5
6DBA
330
6DB9
100
AcDbEntity
  8
0
100
AcDbBlockBegin
  2
*D234
 70
     1
 10
0.0
 20
0.0
 30
0.0
  3
*D234
  1

  0
LINE
  5
6ECC
330
6DB9
100
AcDbEntity
  8
标注
370
    -2
100
AcDbLine
 10
1024.545303572767
 20
130.9109248389289
 30
0.0
 11
1024.909030343582
 21
131.4496296153994
 31
0.0
  0
MTEXT
  5
6ECD
330
6DB9
100
AcDbEntity
  8
标注
100
AcDbMText
 10
1024.351579828208
 20
131.629011722406
 30
0.0
 40
0.65
 41
0.0
 71
     5
 72
     1
  1
\A1;R1/2"
 11
0.5595796474082685
 21
0.8287765791855113
 31
0.0
 73
     1
 44
1.0
1001
ACAD
1000
MTEXTBEGIN
1070
    73
1070
     1
1070
    44
1040
1.0
1070
    74
1070
     0
1000
MTEXTEND
  0
LINE
  5
6ECE
330
6DB9
100
AcDbEntity
  8
标注
370
    -2
100
AcDbLine
 10
1023.917208464594
 20
129.9806720722935
 30
0.0
 11
1024.181576801951
 21
130.3722200624584
 31
0.0
  0
SOLID
  5
6ECF
330
6DB9
100
AcDbEntity
  8
标注
100
AcDbTrace
 10
1024.455519443355
 20
130.9715459673982
 30
0.0
 11
1024.635087702178
 21
130.8503037104597
 31
0.0
 12
1024.181576801951
 22
130.3722200624584
 32
0.0
 13
1024.181576801951
 23
130.3722200624584
 33
0.0
  0
POINT
  5
6ED0
330
6DB9
100
AcDbEntity
  8
DEFPOINTS
 62
     0
100
AcDbPoint
 10
1024.181576801951
 20
130.3722200624584
 30
0.0
  0
POINT
  5
6ED1
330
6DB9
100
AcDbEntity
  8
DEFPOINTS
 62
     0
100
AcDbPoint
 10
1023.917208464594
 20
129.9806720722935
 30
0.0
  0
ENDBLK
  5
6DBB
330
6DB9
100
AcDbEntity
  8
0
100
AcDbBlockEnd
  0
BLOCK
  5
6DC4
330
6DC3
100
AcDbEntity
  8
0
100
AcDbBlockBegin
  2
*D235
 70
     1
 10
0.0
 20
0.0
 30
0.0
  3
*D235
  1

  0
LINE
  5
6ED2
330
6DC3
100
AcDbEntity
  8
标注
370
    -2
100
AcDbLine
 10
1024.076067768398
 20
128.0793094723327
 30
0.0
 11
1023.635583690926
 21
127.601320165451
 31
0.0
  0
MTEXT
  5
6ED3
330
6DC3
100
AcDbEntity
  8
标注
100
AcDbMText
 10
1023.402694570716
 20
128.2171821300071
 30
0.0
 40
0.65
 41
0.0
 71
     5
 72
     1
  1
\A1;R3/8"
 11
0.6776678114960707
 21
0.7353681644333853
 31
0.0
 73
     1
 44
1.0
1001
ACAD
1000
MTEXTBEGIN
1070
    73
1070
     1
1070
    44
1040
1.0
1070
    74
1070
     0
1000
MTEXTEND
  0
LINE
  5
6ED4
330
6DC3
100
AcDbEntity
  8
标注
370
    -2
100
AcDbLine
 10
1024.783350196852
 20
128.8468138045808
 30
0.0
 11
1024.51655184587
 21
128.5572987792144
 31
0.0
  0
SOLID
  5
6ED5
330
6DC3
100
AcDbEntity
  8
标注
100
AcDbTrace
 10
1023.996402883918
 20
128.1527234852448
 30
0.0
 11
1024.155732652878
 21
128.0058954594207
 31
0.0
 12
1024.51655184587
 22
128.5572987792144
 32
0.0
 13
1024.51655184587
 23
128.5572987792144
 33
0.0
  0
POINT
  5
6ED6
330
6DC3
100
AcDbEntity
  8
DEFPOINTS
 62
     0
100
AcDbPoint
 10
1024.51655184587
 20
128.5572987792144
 30
0.0
  0
POINT
  5
6ED7
330
6DC3
100
AcDbEntity
  8
DEFPOINTS
 62
     0
100
AcDbPoint
 10
1024.783350196852
 20
128.8468138045808
 30
0.0
  0
ENDBLK
  5
6DC5
330
6DC3
100
AcDbEntity
  8
0
100
AcDbBlockEnd
  0
BLOCK
  5
6DF8
330
6DF7
100
AcDbEntity
  8
0
100
AcDbBlockBegin
  2
*D236
 70
     1
 10
0.0
 20
0.0
 30
0.0
  3
*D236
  1

  0
LINE
  5
6ED8
330
6DF7
100
AcDbEntity
  8
标注
370
    -2
100
AcDbLine
 10
1009.710288124228
 20
146.5166919853646
 30
0.0
 11
1009.710288124228
 21
144.1295932028442
 31
0.0
  0
LINE
  5
6ED9
330
6DF7
100
AcDbEntity
  8
标注
370
    -2
100
AcDbLine
 10
1023.71028812417
 20
146.5166919853646
 30
0.0
 11
1023.71028812417
 21
144.1295932028442
 31
0.0
  0
LINE
  5
6EDA
330
6DF7
100
AcDbEntity
  8
标注
370
    -2
100
AcDbLine
 10
1010.360288124228
 20
144.4495932028441
 30
0.0
 11
1015.814824276995
 21
144.4495932028441
 31
0.0
  0
LINE
  5
6EDB
330
6DF7
100
AcDbEntity
  8
标注
370
    -2
100
AcDbLine
 10
1023.06028812417
 20
144.4495932028441
 30
0.0
 11
1017.605751971402
 21
144.4495932028441
 31
0.0
  0
SOLID
  5
6EDC
330
6DF7
100
AcDbEntity
  8
标注
100
AcDbTrace
 10
1010.360288124228
 20
144.5579265361775
 30
0.0
 11
1010.360288124228
 21
144.3412598695108
 31
0.0
 12
1009.710288124228
 22
144.4495932028441
 32
0.0
 13
1009.710288124228
 23
144.4495932028441
 33
0.0
  0
SOLID
  5
6EDD
330
6DF7
100
AcDbEntity
  8
标注
100
AcDbTrace
 10
1023.06028812417
 20
144.5579265361775
 30
0.0
 11
1023.06028812417
 21
144.3412598695108
 31
0.0
 12
1023.71028812417
 22
144.4495932028441
 32
0.0
 13
1023.71028812417
 23
144.4495932028441
 33
0.0
  0
MTEXT
  5
6EDE
330
6DF7
100
AcDbEntity
  8
标注
100
AcDbMText
 10
1016.710288124199
 20
144.4495932028441
 30
0.0
 40
0.65
 41
0.0
 71
     5
 72
     1
  1
\A1;14"
 73
     1
 44
1.0
1001
ACAD
1000
MTEXTBEGIN
1070
    73
1070
     1
1070
    44
1040
1.0
1070
    74
1070
     0
1000
MTEXTEND
  0
POINT
  5
6EDF
330
6DF7
100
AcDbEntity
  8
DEFPOINTS
 62
     0
100
AcDbPoint
 10
1009.710288124228
 20
147.3966919853646
 30
0.0
  0
POINT
  5
6EE0
330
6DF7
100
AcDbEntity
  8
DEFPOINTS
 62
     0
100
AcDbPoint
 10
1023.71028812417
 20
147.3966919853646
 30
0.0
  0
POINT
  5
6EE1
330
6DF7
100
AcDbEntity
  8
DEFPOINTS
 62
     0
100
AcDbPoint
 10
1023.71028812417
 20
144.4495932028441
 30
0.0
  0
ENDBLK
  5
6DF9
330
6DF7
100
AcDbEntity
  8
0
100
AcDbBlockEnd
  0
BLOCK
  5
6E06
330
6E05
100
AcDbEntity
  8
0
100
AcDbBlockBegin
  2
*D237
 70
     1
 10
0.0
 20
0.0
 30
0.0
  3
*D237
  1

  0
LINE
  5
6EE2
330
6E05
100
AcDbEntity
  8
标注
370
    -2
100
AcDbLine
 10
1024.71028812416
 20
146.5166919853546
 30
0.0
 11
1024.71028812416
 21
144.1295932028442
 31
0.0
  0
LINE
  5
6EE3
330
6E05
100
AcDbEntity
  8
标注
370
    -2
100
AcDbLine
 10
1038.210288124092
 20
146.5166919853837
 30
0.0
 11
1038.210288124092
 21
144.1295932028442
 31
0.0
  0
LINE
  5
6EE4
330
6E05
100
AcDbEntity
  8
标注
370
    -2
100
AcDbLine
 10
1025.36028812416
 20
144.4495932028441
 30
0.0
 11
1029.807525504754
 21
144.4495932028441
 31
0.0
  0
LINE
  5
6EE5
330
6E05
100
AcDbEntity
  8
标注
370
    -2
100
AcDbLine
 10
1037.560288124092
 20
144.4495932028441
 30
0.0
 11
1033.113050743498
 21
144.4495932028441
 31
0.0
  0
SOLID
  5
6EE6
330
6E05
100
AcDbEntity
  8
标注
100
AcDbTrace
 10
1025.36028812416
 20
144.5579265361775
 30
0.0
 11
1025.36028812416
 21
144.3412598695108
 31
0.0
 12
1024.71028812416
 22
144.4495932028441
 32
0.0
 13
1024.71028812416
 23
144.4495932028441
 33
0.0
  0
SOLID
  5
6EE7
330
6E05
100
AcDbEntity
  8
标注
100
AcDbTrace
 10
1037.560288124092
 20
144.5579265361775
 30
0.0
 11
1037.560288124092
 21
144.3412598695108
 31
0.0
 12
1038.210288124092
 22
144.4495932028441
 32
0.0
 13
1038.210288124092
 23
144.4495932028441
 33
0.0
  0
MTEXT
  5
6EE8
330
6E05
100
AcDbEntity
  8
标注
100
AcDbMText
 10
1031.460288124126
 20
144.4495932028441
 30
0.0
 40
0.65
 41
0.0
 71
     5
 72
     1
  1
\A1;13 1/2"
 73
     1
 44
1.0
1001
ACAD
1000
MTEXTBEGIN
1070
    73
1070
     1
1070
    44
1040
1.0
1070
    74
1070
     0
1000
MTEXTEND
  0
POINT
  5
6EE9
330
6E05
100
AcDbEntity
  8
DEFPOINTS
 62
     0
100
AcDbPoint
 10
1024.71028812416
 20
147.3966919853546
 30
0.0
  0
POINT
  5
6EEA
330
6E05
100
AcDbEntity
  8
DEFPOINTS
 62
     0
100
AcDbPoint
 10
1038.210288124092
 20
147.3966919853836
 30
0.0
  0
POINT
  5
6EEB
330
6E05
100
AcDbEntity
  8
DEFPOINTS
 62
     0
100
AcDbPoint
 10
1038.210288124092
 20
144.4495932028441
 30
0.0
  0
ENDBLK
  5
6E07
330
6E05
100
AcDbEntity
  8
0
100
AcDbBlockEnd
  0
BLOCK
  5
6E14
330
6E13
100
AcDbEntity
  8
0
100
AcDbBlockBegin
  2
*D238
 70
     1
 10
0.0
 20
0.0
 30
0.0
  3
*D238
  1

  0
LINE
  5
6EEC
330
6E13
100
AcDbEntity
  8
标注
370
    -2
100
AcDbLine
 10
1008.710288124228
 20
146.0886773052326
 30
0.0
 11
1008.710288124228
 21
142.3791019304778
 31
0.0
  0
LINE
  5
6EED
330
6E13
100
AcDbEntity
  8
标注
370
    -2
100
AcDbLine
 10
1039.210288124111
 20
146.0886773052326
 30
0.0
 11
1039.210288124111
 21
142.3791019304778
 31
0.0
  0
LINE
  5
6EEE
330
6E13
100
AcDbEntity
  8
标注
370
    -2
100
AcDbLine
 10
1009.360288124228
 20
142.6991019304778
 30
0.0
 11
1022.277153744906
 21
142.6991019304778
 31
0.0
  0
LINE
  5
6EEF
330
6E13
100
AcDbEntity
  8
标注
370
    -2
100
AcDbLine
 10
1038.560288124111
 20
142.6991019304778
 30
0.0
 11
1025.643422503433
 21
142.6991019304778
 31
0.0
  0
SOLID
  5
6EF0
330
6E13
100
AcDbEntity
  8
标注
100
AcDbTrace
 10
1009.360288124228
 20
142.8074352638111
 30
0.0
 11
1009.360288124228
 21
142.5907685971445
 31
0.0
 12
1008.710288124228
 22
142.6991019304778
 32
0.0
 13
1008.710288124228
 23
142.6991019304778
 33
0.0
  0
SOLID
  5
6EF1
330
6E13
100
AcDbEntity
  8
标注
100
AcDbTrace
 10
1038.560288124111
 20
142.8074352638111
 30
0.0
 11
1038.560288124111
 21
142.5907685971445
 31
0.0
 12
1039.210288124111
 22
142.6991019304778
 32
0.0
 13
1039.210288124111
 23
142.6991019304778
 33
0.0
  0
MTEXT
  5
6EF2
330
6E13
100
AcDbEntity
  8
标注
100
AcDbMText
 10
1023.96028812417
 20
142.6991019304778
 30
0.0
 40
0.65
 41
0.0
 71
     5
 72
     1
  1
\A1;30 1/2"
 73
     1
 44
1.0
1001
ACAD
1000
MTEXTBEGIN
1070
    73
1070
     1
1070
    44
1040
1.0
1070
    74
1070
     0
1000
MTEXTEND
  0
POINT
  5
6EF3
330
6E13
100
AcDbEntity
  8
DEFPOINTS
 62
     0
100
AcDbPoint
 10
1008.710288124228
 20
146.9686773052325
 30
0.0
  0
POINT
  5
6EF4
330
6E13
100
AcDbEntity
  8
DEFPOINTS
 62
     0
100
AcDbPoint
 10
1039.210288124111
 20
146.9686773052325
 30
0.0
  0
POINT
  5
6EF5
330
6E13
100
AcDbEntity
  8
DEFPOINTS
 62
     0
100
AcDbPoint
 10
1039.210288124111
 20
142.6991019304778
 30
0.0
  0
ENDBLK
  5
6E15
330
6E13
100
AcDbEntity
  8
0
100
AcDbBlockEnd
  0
BLOCK
  5
6E22
330
6E21
100
AcDbEntity
  8
0
100
AcDbBlockBegin
  2
*D239
 70
     1
 10
0.0
 20
0.0
 30
0.0
  3
*D239
  1

  0
LINE
  5
6EF6
330
6E21
100
AcDbEntity
  8
标注
370
    -2
100
AcDbLine
 10
1038.696587336692
 20
147.0029911979454
 30
0.0
 11
1041.364624893784
 21
147.0029911979454
 31
0.0
  0
LINE
  5
6EF7
330
6E21
100
AcDbEntity
  8
标注
370
    -2
100
AcDbLine
 10
1038.696587336692
 20
163.002991197897
 30
0.0
 11
1041.364624893784
 21
163.002991197897
 31
0.0
  0
LINE
  5
6EF8
330
6E21
100
AcDbEntity
  8
标注
370
    -2
100
AcDbLine
 10
1041.044624893784
 20
147.6529911979454
 30
0.0
 11
1041.044624893784
 21
154.1075273507179
 31
0.0
  0
LINE
  5
6EF9
330
6E21
100
AcDbEntity
  8
标注
370
    -2
100
AcDbLine
 10
1041.044624893784
 20
162.3529911978971
 30
0.0
 11
1041.044624893784
 21
155.8984550451245
 31
0.0
  0
SOLID
  5
6EFA
330
6E21
100
AcDbEntity
  8
标注
100
AcDbTrace
 10
1040.93629156045
 20
147.6529911979454
 30
0.0
 11
1041.152958227117
 21
147.6529911979454
 31
0.0
 12
1041.044624893784
 22
147.0029911979454
 32
0.0
 13
1041.044624893784
 23
147.0029911979454
 33
0.0
  0
SOLID
  5
6EFB
330
6E21
100
AcDbEntity
  8
标注
100
AcDbTrace
 10
1040.93629156045
 20
162.3529911978971
 30
0.0
 11
1041.152958227117
 21
162.3529911978971
 31
0.0
 12
1041.044624893784
 22
163.002991197897
 32
0.0
 13
1041.044624893784
 23
163.002991197897
 33
0.0
  0
MTEXT
  5
6EFC
330
6E21
100
AcDbEntity
  8
标注
100
AcDbMText
 10
1041.044624893784
 20
155.0029911979214
 30
0.0
 40
0.65
 41
0.0
 71
     5
 72
     1
  1
\A1;16"
 11
0.0000000000000001
 21
1.0
 31
0.0
 73
     1
 44
1.0
1001
ACAD
1000
MTEXTBEGIN
1070
    73
1070
     1
1070
    44
1040
1.0
1070
    74
1070
     0
1000
MTEXTEND
  0
POINT
  5
6EFD
330
6E21
100
AcDbEntity
  8
DEFPOINTS
 62
     0
100
AcDbPoint
 10
1037.816587336692
 20
147.0029911979454
 30
0.0
  0
POINT
  5
6EFE
330
6E21
100
AcDbEntity
  8
DEFPOINTS
 62
     0
100
AcDbPoint
 10
1037.816587336692
 20
163.002991197897
 30
0.0
  0
POINT
  5
6EFF
330
6E21
100
AcDbEntity
  8
DEFPOINTS
 62
     0
100
AcDbPoint
 10
1041.044624893784
 20
163.002991197897
 30
0.0
  0
ENDBLK
  5
6E23
330
6E21
100
AcDbEntity
  8
0
100
AcDbBlockEnd
  0
BLOCK
  5
6E30
330
6E2F
100
AcDbEntity
  8
0
100
AcDbBlockBegin
  2
*D240
 70
     1
 10
0.0
 20
0.0
 30
0.0
  3
*D240
  1

  0
LINE
  5
6F00
330
6E2F
100
AcDbEntity
  8
标注
370
    -2
100
AcDbLine
 10
1039.090288124092
 20
146.0029911979454
 30
0.0
 11
1043.101448051936
 21
146.0029911979454
 31
0.0
  0
LINE
  5
6F01
330
6E2F
100
AcDbEntity
  8
标注
370
    -2
100
AcDbLine
 10
1039.090288124092
 20
164.0029911978872
 30
0.0
 11
1043.101448051936
 21
164.0029911978872
 31
0.0
  0
LINE
  5
6F02
330
6E2F
100
AcDbEntity
  8
标注
370
    -2
100
AcDbLine
 10
1042.781448051936
 20
146.6529911979454
 30
0.0
 11
1042.781448051936
 21
154.107527350713
 31
0.0
  0
LINE
  5
6F03
330
6E2F
100
AcDbEntity
  8
标注
370
    -2
100
AcDbLine
 10
1042.781448051936
 20
163.3529911978872
 30
0.0
 11
1042.781448051936
 21
155.8984550451195
 31
0.0
  0
SOLID
  5
6F04
330
6E2F
100
AcDbEntity
  8
标注
100
AcDbTrace
 10
1042.673114718603
 20
146.6529911979454
 30
0.0
 11
1042.88978138527
 21
146.6529911979454
 31
0.0
 12
1042.781448051936
 22
146.0029911979454
 32
0.0
 13
1042.781448051936
 23
146.0029911979454
 33
0.0
  0
SOLID
  5
6F05
330
6E2F
100
AcDbEntity
  8
标注
100
AcDbTrace
 10
1042.673114718603
 20
163.3529911978872
 30
0.0
 11
1042.88978138527
 21
163.3529911978872
 31
0.0
 12
1042.781448051936
 22
164.0029911978872
 32
0.0
 13
1042.781448051936
 23
164.0029911978872
 33
0.0
  0
MTEXT
  5
6F06
330
6E2F
100
AcDbEntity
  8
标注
100
AcDbMText
 10
1042.781448051936
 20
155.0029911979164
 30
0.0
 40
0.65
 41
0.0
 71
     5
 72
     1
  1
\A1;18"
 11
0.0000000000000001
 21
1.0
 31
0.0
 73
     1
 44
1.0
1001
ACAD
1000
MTEXTBEGIN
1070
    73
1070
     1
1070
    44
1040
1.0
1070
    74
1070
     0
1000
MTEXTEND
  0
POINT
  5
6F07
330
6E2F
100
AcDbEntity
  8
DEFPOINTS
 62
     0
100
AcDbPoint
 10
1038.210288124092
 20
146.0029911979454
 30
0.0
  0
POINT
  5
6F08
330
6E2F
100
AcDbEntity
  8
DEFPOINTS
 62
     0
100
AcDbPoint
 10
1038.210288124092
 20
164.0029911978872
 30
0.0
  0
POINT
  5
6F09
330
6E2F
100
AcDbEntity
  8
DEFPOINTS
 62
     0
100
AcDbPoint
 10
1042.781448051936
 20
164.0029911978872
 30
0.0
  0
ENDBLK
  5
6E31
330
6E2F
100
AcDbEntity
  8
0
100
AcDbBlockEnd
  0
BLOCK
  5
6E3E
330
6E3D
100
AcDbEntity
  8
0
100
AcDbBlockBegin
  2
*D241
 70
     1
 10
0.0
 20
0.0
 30
0.0
  3
*D241
  1

  0
LINE
  5
6F0A
330
6E3D
100
AcDbEntity
  8
标注
370
    -2
100
AcDbLine
 10
1009.223988911618
 20
147.0029911979454
 30
0.0
 11
1006.745418273095
 21
147.0029911979454
 31
0.0
  0
LINE
  5
6F0B
330
6E3D
100
AcDbEntity
  8
标注
370
    -2
100
AcDbLine
 10
1009.223988911618
 20
165.0029911978872
 30
0.0
 11
1006.745418273095
 21
165.0029911978872
 31
0.0
  0
LINE
  5
6F0C
330
6E3D
100
AcDbEntity
  8
标注
370
    -2
100
AcDbLine
 10
1007.065418273095
 20
147.6529911979454
 30
0.0
 11
1007.065418273095
 21
155.107527350713
 31
0.0
  0
LINE
  5
6F0D
330
6E3D
100
AcDbEntity
  8
标注
370
    -2
100
AcDbLine
 10
1007.065418273095
 20
164.3529911978871
 30
0.0
 11
1007.065418273095
 21
156.8984550451195
 31
0.0
  0
SOLID
  5
6F0E
330
6E3D
100
AcDbEntity
  8
标注
100
AcDbTrace
 10
1006.957084939761
 20
147.6529911979454
 30
0.0
 11
1007.173751606428
 21
147.6529911979454
 31
0.0
 12
1007.065418273095
 22
147.0029911979454
 32
0.0
 13
1007.065418273095
 23
147.0029911979454
 33
0.0
  0
SOLID
  5
6F0F
330
6E3D
100
AcDbEntity
  8
标注
100
AcDbTrace
 10
1006.957084939761
 20
164.3529911978871
 30
0.0
 11
1007.173751606428
 21
164.3529911978871
 31
0.0
 12
1007.065418273095
 22
165.0029911978872
 32
0.0
 13
1007.065418273095
 23
165.0029911978872
 33
0.0
  0
MTEXT
  5
6F10
330
6E3D
100
AcDbEntity
  8
标注
100
AcDbMText
 10
1007.065418273095
 20
156.0029911979164
 30
0.0
 40
0.65
 41
0.0
 71
     5
 72
     1
  1
\A1;18"
 11
0.0000000000000001
 21
1.0
 31
0.0
 73
     1
 44
1.0
1001
ACAD
1000
MTEXTBEGIN
1070
    73
1070
     1
1070
    44
1040
1.0
1070
    74
1070
     0
1000
MTEXTEND
  0
POINT
  5
6F11
330
6E3D
100
AcDbEntity
  8
DEFPOINTS
 62
     0
100
AcDbPoint
 10
1010.103988911618
 20
147.0029911979454
 30
0.0
  0
POINT
  5
6F12
330
6E3D
100
AcDbEntity
  8
DEFPOINTS
 62
     0
100
AcDbPoint
 10
1010.103988911618
 20
165.0029911978872
 30
0.0
  0
POINT
  5
6F13
330
6E3D
100
AcDbEntity
  8
DEFPOINTS
 62
     0
100
AcDbPoint
 10
1007.065418273095
 20
165.0029911978872
 30
0.0
  0
ENDBLK
  5
6E3F
330
6E3D
100
AcDbEntity
  8
0
100
AcDbBlockEnd
  0
BLOCK
  5
6E4C
330
6E4B
100
AcDbEntity
  8
0
100
AcDbBlockBegin
  2
*D242
 70
     1
 10
0.0
 20
0.0
 30
0.0
  3
*D242
  1

  0
LINE
  5
6F14
330
6E4B
100
AcDbEntity
  8
标注
370
    -2
100
AcDbLine
 10
1008.830288124228
 20
146.0029911979454
 30
0.0
 11
1005.055291516582
 21
146.0029911979454
 31
0.0
  0
LINE
  5
6F15
330
6E4B
100
AcDbEntity
  8
标注
370
    -2
100
AcDbLine
 10
1008.830288124228
 20
166.002991197858
 30
0.0
 11
1005.055291516582
 21
166.002991197858
 31
0.0
  0
LINE
  5
6F16
330
6E4B
100
AcDbEntity
  8
标注
370
    -2
100
AcDbLine
 10
1005.375291516581
 20
146.6529911979454
 30
0.0
 11
1005.375291516581
 21
155.0713916071786
 31
0.0
  0
LINE
  5
6F17
330
6E4B
100
AcDbEntity
  8
标注
370
    -2
100
AcDbLine
 10
1005.375291516581
 20
165.352991197858
 30
0.0
 11
1005.375291516581
 21
156.9345907886248
 31
0.0
  0
SOLID
  5
6F18
330
6E4B
100
AcDbEntity
  8
标注
100
AcDbTrace
 10
1005.266958183248
 20
146.6529911979454
 30
0.0
 11
1005.483624849915
 21
146.6529911979454
 31
0.0
 12
1005.375291516581
 22
146.0029911979454
 32
0.0
 13
1005.375291516581
 23
146.0029911979454
 33
0.0
  0
SOLID
  5
6F19
330
6E4B
100
AcDbEntity
  8
标注
100
AcDbTrace
 10
1005.266958183248
 20
165.352991197858
 30
0.0
 11
1005.483624849915
 21
165.352991197858
 31
0.0
 12
1005.375291516581
 22
166.002991197858
 32
0.0
 13
1005.375291516581
 23
166.002991197858
 33
0.0
  0
MTEXT
  5
6F1A
330
6E4B
100
AcDbEntity
  8
标注
100
AcDbMText
 10
1005.375291516581
 20
156.0029911979019
 30
0.0
 40
0.65
 41
0.0
 71
     5
 72
     1
  1
\A1;20"
 11
0.0000000000000001
 21
1.0
 31
0.0
 73
     1
 44
1.0
1001
ACAD
1000
MTEXTBEGIN
1070
    73
1070
     1
1070
    44
1040
1.0
1070
    74
1070
     0
1000
MTEXTEND
  0
POINT
  5
6F1B
330
6E4B
100
AcDbEntity
  8
DEFPOINTS
 62
     0
100
AcDbPoint
 10
1009.710288124228
 20
146.0029911979454
 30
0.0
  0
POINT
  5
6F1C
330
6E4B
100
AcDbEntity
  8
DEFPOINTS
 62
     0
100
AcDbPoint
 10
1009.710288124228
 20
166.002991197858
 30
0.0
  0
POINT
  5
6F1D
330
6E4B
100
AcDbEntity
  8
DEFPOINTS
 62
     0
100
AcDbPoint
 10
1005.375291516581
 20
166.002991197858
 30
0.0
  0
ENDBLK
  5
6E4D
330
6E4B
100
AcDbEntity
  8
0
100
AcDbBlockEnd
  0
BLOCK
  5
6E5A
330
6E59
100
AcDbEntity
  8
0
100
AcDbBlockBegin
  2
*D243
 70
     1
 10
0.0
 20
0.0
 30
0.0
  3
*D243
  1

  0
LINE
  5
6F1E
330
6E59
100
AcDbEntity
  8
标注
370
    -2
100
AcDbLine
 10
1040.090288124112
 20
185.7543758390301
 30
0.0
 11
1040.994697748532
 21
185.7543758390301
 31
0.0
  0
LINE
  5
6F1F
330
6E59
100
AcDbEntity
  8
标注
370
    -2
100
AcDbLine
 10
1038.725723289982
 20
177.8161041855118
 30
0.0
 11
1040.994697748532
 21
177.8161041855118
 31
0.0
  0
LINE
  5
6F20
330
6E59
100
AcDbEntity
  8
标注
370
    -2
100
AcDbLine
 10
1040.674697748531
 20
185.1043758390301
 30
0.0
 11
1040.674697748531
 21
182.4592338731168
 31
0.0
  0
LINE
  5
6F21
330
6E59
100
AcDbEntity
  8
标注
370
    -2
100
AcDbLine
 10
1040.674697748531
 20
178.4661041855118
 30
0.0
 11
1040.674697748531
 21
181.1112461514251
 31
0.0
  0
SOLID
  5
6F22
330
6E59
100
AcDbEntity
  8
标注
100
AcDbTrace
 10
1040.566364415198
 20
185.1043758390301
 30
0.0
 11
1040.783031081865
 21
185.1043758390301
 31
0.0
 12
1040.674697748531
 22
185.7543758390301
 32
0.0
 13
1040.674697748531
 23
185.7543758390301
 33
0.0
  0
SOLID
  5
6F23
330
6E59
100
AcDbEntity
  8
标注
100
AcDbTrace
 10
1040.566364415198
 20
178.4661041855118
 30
0.0
 11
1040.783031081865
 21
178.4661041855118
 31
0.0
 12
1040.674697748531
 22
177.8161041855118
 32
0.0
 13
1040.674697748531
 23
177.8161041855118
 33
0.0
  0
MTEXT
  5
6F24
330
6E59
100
AcDbEntity
  8
标注
100
AcDbMText
 10
1040.674697748531
 20
181.7852400122711
 30
0.0
 40
0.65
 41
0.0
 71
     5
 72
     1
  1
\A1;8"
 11
0.0000000000000001
 21
1.0
 31
0.0
 73
     1
 44
1.0
1001
ACAD
1000
MTEXTBEGIN
1070
    73
1070
     1
1070
    44
1040
1.0
1070
    74
1070
     0
1000
MTEXTEND
  0
POINT
  5
6F25
330
6E59
100
AcDbEntity
  8
DEFPOINTS
 62
     0
100
AcDbPoint
 10
1039.210288124111
 20
185.7543758390301
 30
0.0
  0
POINT
  5
6F26
330
6E59
100
AcDbEntity
  8
DEFPOINTS
 62
     0
100
AcDbPoint
 10
1037.845723289982
 20
177.8161041855118
 30
0.0
  0
POINT
  5
6F27
330
6E59
100
AcDbEntity
  8
DEFPOINTS
 62
     0
100
AcDbPoint
 10
1040.674697748531
 20
177.8161041855118
 30
0.0
  0
ENDBLK
  5
6E5B
330
6E59
100
AcDbEntity
  8
0
100
AcDbBlockEnd
  0
BLOCK
  5
6E7C
330
6E7B
100
AcDbEntity
  8
0
100
AcDbBlockBegin
  2
*D244
 70
     1
 10
0.0
 20
0.0
 30
0.0
  3
*D244
  1

  0
LINE
  5
6F28
330
6E7B
100
AcDbEntity
  8
标注
370
    -2
100
AcDbLine
 10
1007.830288124548
 20
185.7543758390301
 30
0.0
 11
1006.362053868092
 21
185.7543758390301
 31
0.0
  0
LINE
  5
6F29
330
6E7B
100
AcDbEntity
  8
标注
370
    -2
100
AcDbLine
 10
1007.830288124548
 20
176.7543758390301
 30
0.0
 11
1006.362053868092
 21
176.7543758390301
 31
0.0
  0
LINE
  5
6F2A
330
6E7B
100
AcDbEntity
  8
标注
370
    -2
100
AcDbLine
 10
1006.682053868092
 20
185.1043758390301
 30
0.0
 11
1006.682053868092
 21
181.9279263165199
 31
0.0
  0
LINE
  5
6F2B
330
6E7B
100
AcDbEntity
  8
标注
370
    -2
100
AcDbLine
 10
1006.682053868092
 20
177.4043758390301
 30
0.0
 11
1006.682053868092
 21
180.5808253615404
 31
0.0
  0
SOLID
  5
6F2C
330
6E7B
100
AcDbEntity
  8
标注
100
AcDbTrace
 10
1006.573720534758
 20
185.1043758390301
 30
0.0
 11
1006.790387201425
 21
185.1043758390301
 31
0.0
 12
1006.682053868092
 22
185.7543758390301
 32
0.0
 13
1006.682053868092
 23
185.7543758390301
 33
0.0
  0
SOLID
  5
6F2D
330
6E7B
100
AcDbEntity
  8
标注
100
AcDbTrace
 10
1006.573720534758
 20
177.4043758390301
 30
0.0
 11
1006.790387201425
 21
177.4043758390301
 31
0.0
 12
1006.682053868092
 22
176.7543758390301
 32
0.0
 13
1006.682053868092
 23
176.7543758390301
 33
0.0
  0
MTEXT
  5
6F2E
330
6E7B
100
AcDbEntity
  8
标注
100
AcDbMText
 10
1006.682053868092
 20
181.2543758390303
 30
0.0
 40
0.65
 41
0.0
 71
     5
 72
     1
  1
\A1;9"
 11
0.0000000000000001
 21
1.0
 31
0.0
 73
     1
 44
1.0
1001
ACAD
1000
MTEXTBEGIN
1070
    73
1070
     1
1070
    44
1040
1.0
1070
    74
1070
     0
1000
MTEXTEND
  0
POINT
  5
6F2F
330
6E7B
100
AcDbEntity
  8
DEFPOINTS
 62
     0
100
AcDbPoint
 10
1008.710288124548
 20
185.7543758390301
 30
0.0
  0
POINT
  5
6F30
330
6E7B
100
AcDbEntity
  8
DEFPOINTS
 62
     0
100
AcDbPoint
 10
1008.710288124548
 20
176.7543758390301
 30
0.0
  0
POINT
  5
6F31
330
6E7B
100
AcDbEntity
  8
DEFPOINTS
 62
     0
100
AcDbPoint
 10
1006.682053868092
 20
176.7543758390301
 30
0.0
  0
ENDBLK
  5
6E7D
330
6E7B
100
AcDbEntity
  8
0
100
AcDbBlockEnd
  0
BLOCK
  5
6E8A
330
6E89
100
AcDbEntity
  8
0
100
AcDbBlockBegin
  2
*D245
 70
     1
 10
0.0
 20
0.0
 30
0.0
  3
*D245
  1

  0
LINE
  5
6F32
330
6E89
100
AcDbEntity
  8
标注
370
    -2
100
AcDbLine
 10
1009.964051694382
 20
176.4762545283475
 30
0.0
 11
1009.503870816428
 21
176.0171972774892
 31
0.0
  0
MTEXT
  5
6F33
330
6E89
100
AcDbEntity
  8
标注
100
AcDbMText
 10
1011.272397653072
 20
178.2512385999863
 30
0.0
 40
0.65
 41
0.0
 71
     5
 72
     1
  1
\A1;R3/8"
 11
0.7079705814675492
 21
0.7062419243973701
 31
0.0
 73
     1
 44
1.0
1001
ACAD
1000
MTEXTBEGIN
1070
    73
1070
     1
1070
    44
1040
1.0
1070
    74
1070
     0
1000
MTEXTEND
  0
LINE
  5
6F34
330
6E89
100
AcDbEntity
  8
标注
370
    -2
100
AcDbLine
 10
1010.702961147716
 20
177.2133597809361
 30
0.0
 11
1010.424232572336
 21
176.9353117792057
 31
0.0
  0
SOLID
  5
6F35
330
6E89
100
AcDbEntity
  8
标注
100
AcDbTrace
 10
1009.887542152572
 20
176.5529513413398
 30
0.0
 11
1010.040561236191
 21
176.3995577153552
 31
0.0
 12
1010.424232572336
 22
176.9353117792057
 32
0.0
 13
1010.424232572336
 23
176.9353117792057
 33
0.0
  0
POINT
  5
6F36
330
6E89
100
AcDbEntity
  8
DEFPOINTS
 62
     0
100
AcDbPoint
 10
1010.424232572336
 20
176.9353117792057
 30
0.0
  0
POINT
  5
6F37
330
6E89
100
AcDbEntity
  8
DEFPOINTS
 62
     0
100
AcDbPoint
 10
1010.702961147716
 20
177.2133597809361
 30
0.0
  0
ENDBLK
  5
6E8B
330
6E89
100
AcDbEntity
  8
0
100
AcDbBlockEnd
  0
BLOCK
  5
6E94
330
6E93
100
AcDbEntity
  8
0
100
AcDbBlockBegin
  2
*D246
 70
     1
 10
0.0
 20
0.0
 30
0.0
  3
*D246
  1

  0
LINE
  5
6F38
330
6E93
100
AcDbEntity
  8
标注
370
    -2
100
AcDbLine
 10
1024.947305626549
 20
177.4264608794609
 30
0.0
 11
1024.520300447961
 21
176.9363929479868
 31
0.0
  0
MTEXT
  5
6F39
330
6E93
100
AcDbEntity
  8
标注
100
AcDbMText
 10
1026.161982373129
 20
179.2928120157265
 30
0.0
 40
0.65
 41
0.0
 71
     5
 72
     1
  1
\A1;R3/8"
 11
0.6569310439812116
 21
0.7539506638061642
 31
0.0
 73
     1
 44
1.0
1001
ACAD
1000
MTEXTBEGIN
1070
    73
1070
     1
1070
    44
1040
1.0
1070
    74
1070
     0
1000
MTEXTEND
  0
LINE
  5
6F3A
330
6E93
100
AcDbEntity
  8
标注
370
    -2
100
AcDbLine
 10
1025.632945074419
 20
178.213359780936
 30
0.0
 11
1025.374310805136
 21
177.9165288109349
 31
0.0
  0
SOLID
  5
6F3B
330
6E93
100
AcDbEntity
  8
标注
100
AcDbTrace
 10
1024.86562763797
 20
177.4976284092256
 30
0.0
 11
1025.028983615128
 21
177.3552933496963
 31
0.0
 12
1025.374310805136
 22
177.9165288109349
 32
0.0
 13
1025.374310805136
 23
177.9165288109349
 33
0.0
  0
POINT
  5
6F3C
330
6E93
100
AcDbEntity
  8
DEFPOINTS
 62
     0
100
AcDbPoint
 10
1025.374310805136
 20
177.9165288109349
 30
0.0
  0
POINT
  5
6F3D
330
6E93
100
AcDbEntity
  8
DEFPOINTS
 62
     0
100
AcDbPoint
 10
1025.632945074419
 20
178.213359780936
 30
0.0
  0
ENDBLK
  5
6E95
330
6E93
100
AcDbEntity
  8
0
100
AcDbBlockEnd
  0
BLOCK
  5
707F
330
707E
100
AcDbEntity
  8
0
100
AcDbBlockBegin
  2
*D248
 70
     1
 10
0.0
 20
0.0
 30
0.0
  3
*D248
  1

  0
LINE
  5
7081
330
707E
100
AcDbEntity
  8
标注
370
    -2
100
AcDbLine
 10
1079.180281719956
 20
181.6483556837381
 30
0.0
 11
1080.862593747906
 21
181.6483556837381
 31
0.0
  0
LINE
  5
7082
330
707E
100
AcDbEntity
  8
标注
370
    -2
100
AcDbLine
 10
1079.180281719956
 20
172.6483556837381
 30
0.0
 11
1080.862593747906
 21
172.6483556837381
 31
0.0
  0
LINE
  5
7083
330
707E
100
AcDbEntity
  8
标注
370
    -2
100
AcDbLine
 10
1080.542593747907
 20
180.9983556837381
 30
0.0
 11
1080.542593747907
 21
177.8219061612279
 31
0.0
  0
LINE
  5
7084
330
707E
100
AcDbEntity
  8
标注
370
    -2
100
AcDbLine
 10
1080.542593747907
 20
173.2983556837381
 30
0.0
 11
1080.542593747907
 21
176.4748052062483
 31
0.0
  0
SOLID
  5
7085
330
707E
100
AcDbEntity
  8
标注
100
AcDbTrace
 10
1080.434260414573
 20
180.9983556837381
 30
0.0
 11
1080.65092708124
 21
180.9983556837381
 31
0.0
 12
1080.542593747907
 22
181.6483556837381
 32
0.0
 13
1080.542593747907
 23
181.6483556837381
 33
0.0
  0
SOLID
  5
7086
330
707E
100
AcDbEntity
  8
标注
100
AcDbTrace
 10
1080.434260414573
 20
173.2983556837381
 30
0.0
 11
1080.65092708124
 21
173.2983556837381
 31
0.0
 12
1080.542593747907
 22
172.6483556837381
 32
0.0
 13
1080.542593747907
 23
172.6483556837381
 33
0.0
  0
MTEXT
  5
7087
330
707E
100
AcDbEntity
  8
标注
100
AcDbMText
 10
1080.542593747907
 20
177.1483556837383
 30
0.0
 40
0.65
 41
0.0
 71
     5
 72
     1
  1
\A1;9"
 11
0.0000000000000001
 21
1.0
 31
0.0
 73
     1
 44
1.0
1001
ACAD
1000
MTEXTBEGIN
1070
    73
1070
     1
1070
    44
1040
1.0
1070
    74
1070
     0
1000
MTEXTEND
  0
POINT
  5
7088
330
707E
100
AcDbEntity
  8
DEFPOINTS
 62
     0
100
AcDbPoint
 10
1078.300281719956
 20
181.6483556837381
 30
0.0
  0
POINT
  5
7089
330
707E
100
AcDbEntity
  8
DEFPOINTS
 62
     0
100
AcDbPoint
 10
1078.300281719956
 20
172.6483556837381
 30
0.0
  0
POINT
  5
708A
330
707E
100
AcDbEntity
  8
DEFPOINTS
 62
     0
100
AcDbPoint
 10
1080.542593747907
 20
172.6483556837381
 30
0.0
  0
ENDBLK
  5
7080
330
707E
100
AcDbEntity
  8
0
100
AcDbBlockEnd
  0
BLOCK
  5
708D
330
708C
100
AcDbEntity
  8
0
100
AcDbBlockBegin
  2
*D249
 70
     1
 10
0.0
 20
0.0
 30
0.0
  3
*D249
  1

  0
ARC
  5
70AC
330
708C
100
AcDbEntity
  8
标注
  6
Continuous
 62
     3
370
    13
100
AcDbCircle
 10
1077.300281719974
 20
181.6483556837381
 30
0.0
 40
2.738119904026787
100
AcDbArc
 50
193.6335384897481
 51
207.577830060386
  0
ARC
  5
70AD
330
708C
100
AcDbEntity
  8
标注
  6
Continuous
 62
     3
370
    13
100
AcDbCircle
 10
1077.300281719974
 20
181.6483556837381
 30
0.0
 40
2.738119904026787
100
AcDbArc
 50
238.4170805609163
 51
252.3613721315534
  0
SOLID
  5
70AE
330
708C
100
AcDbEntity
  8
标注
 62
     3
100
AcDbTrace
 10
1074.531745790292
 20
180.9900920765908
 30
0.0
 11
1074.746880799402
 21
181.0158092362241
 31
0.0
 12
1074.562161815947
 22
181.648355683738
 32
0.0
 13
1074.562161815947
 23
181.648355683738
 33
0.0
  0
SOLID
  5
70AF
330
708C
100
AcDbEntity
  8
标注
 62
     3
100
AcDbTrace
 10
1076.490937545174
 20
179.1453708104001
 30
0.0
 11
1076.450257068023
 21
178.9325574103914
 31
0.0
 12
1077.109037506624
 22
178.9169226789421
 32
0.0
 13
1077.109037506624
 23
178.9169226789421
 33
0.0
  0
MTEXT
  5
70B0
330
708C
100
AcDbEntity
  8
标注
 62
     3
100
AcDbMText
 10
1075.297664657736
 20
179.7810513403429
 30
0.0
 40
0.65
 41
0.0
 71
     5
 72
     1
  1
\A1;86\U+00B0
 11
0.6819658776261142
 21
-0.7313839906325841
 31
0.0
 73
     1
 44
1.0
1001
ACAD
1000
MTEXTBEGIN
1070
    73
1070
     1
1070
    44
1040
1.0
1070
    74
1070
     0
1000
MTEXTEND
  0
POINT
  5
70B1
330
708C
100
AcDbEntity
  8
DEFPOINTS
 62
     0
100
AcDbPoint
 10
1074.897746883068
 20
180.3349147957348
 30
0.0
  0
POINT
  5
70B2
330
708C
100
AcDbEntity
  8
DEFPOINTS
 62
     0
100
AcDbPoint
 10
1062.208506911422
 20
181.6483556837382
 30
0.0
  0
POINT
  5
70B3
330
708C
100
AcDbEntity
  8
DEFPOINTS
 62
     0
100
AcDbPoint
 10
1077.293871700804
 20
181.5568050029876
 30
0.0
  0
POINT
  5
70B4
330
708C
100
AcDbEntity
  8
DEFPOINTS
 62
     0
100
AcDbPoint
 10
1076.700348007504
 20
173.0798415612559
 30
0.0
  0
POINT
  5
70B5
330
708C
100
AcDbEntity
  8
DEFPOINTS
 62
     0
100
AcDbPoint
 10
1077.392056528548
 20
181.6483556837381
 30
0.0
  0
ENDBLK
  5
708E
330
708C
100
AcDbEntity
  8
0
100
AcDbBlockEnd
  0
BLOCK
  5
70C4
330
70C3
100
AcDbEntity
  8
0
100
AcDbBlockBegin
  2
*D250
 70
     1
 10
0.0
 20
0.0
 30
0.0
  3
*D250
  1

  0
LINE
  5
70C6
330
70C3
100
AcDbEntity
  8
标注
370
    -2
100
AcDbLine
 10
1062.517119592657
 20
172.4092055752737
 30
0.0
 11
1062.033941986434
 21
171.9744189599724
 31
0.0
  0
MTEXT
  5
70C7
330
70C3
100
AcDbEntity
  8
标注
100
AcDbMText
 10
1061.990755455854
 20
172.6820784371186
 30
0.0
 40
0.65
 41
0.0
 71
     5
 72
     1
  1
\A1;R3/8"
 11
0.7433501634192002
 21
0.6689024850788407
 31
0.0
 73
     1
 44
1.0
1001
ACAD
1000
MTEXTBEGIN
1070
    73
1070
     1
1070
    44
1040
1.0
1070
    74
1070
     0
1000
MTEXTEND
  0
LINE
  5
70C8
330
70C3
100
AcDbEntity
  8
标注
370
    -2
100
AcDbLine
 10
1063.292954743531
 20
173.1073396256443
 30
0.0
 11
1063.000297198879
 21
172.843992190575
 31
0.0
  0
SOLID
  5
70C9
330
70C3
100
AcDbEntity
  8
标注
100
AcDbTrace
 10
1062.444655156773
 20
172.4897351763108
 30
0.0
 11
1062.58958402854
 21
172.3286759742366
 31
0.0
 12
1063.000297198879
 22
172.843992190575
 32
0.0
 13
1063.000297198879
 23
172.843992190575
 33
0.0
  0
POINT
  5
70CA
330
70C3
100
AcDbEntity
  8
DEFPOINTS
 62
     0
100
AcDbPoint
 10
1063.000297198879
 20
172.843992190575
 30
0.0
  0
POINT
  5
70CB
330
70C3
100
AcDbEntity
  8
DEFPOINTS
 62
     0
100
AcDbPoint
 10
1063.292954743531
 20
173.1073396256443
 30
0.0
  0
ENDBLK
  5
70C5
330
70C3
100
AcDbEntity
  8
0
100
AcDbBlockEnd
  0
BLOCK
  5
70CE
330
70CD
100
AcDbEntity
  8
0
100
AcDbBlockBegin
  2
*D251
 70
     1
 10
0.0
 20
0.0
 30
0.0
  3
*D251
  1

  0
LINE
  5
70D0
330
70CD
100
AcDbEntity
  8
标注
370
    -2
100
AcDbLine
 10
1062.300281720034
 20
144.8295933745531
 30
0.0
 11
1062.300281720034
 21
142.0845770921852
 31
0.0
  0
LINE
  5
70D1
330
70CD
100
AcDbEntity
  8
标注
370
    -2
100
AcDbLine
 10
1077.300281719956
 20
144.8295933745531
 30
0.0
 11
1077.300281719956
 21
142.0845770921852
 31
0.0
  0
LINE
  5
70D2
330
70CD
100
AcDbEntity
  8
标注
370
    -2
100
AcDbLine
 10
1062.950281720034
 20
142.4045770921852
 30
0.0
 11
1068.904817872792
 21
142.4045770921852
 31
0.0
  0
LINE
  5
70D3
330
70CD
100
AcDbEntity
  8
标注
370
    -2
100
AcDbLine
 10
1076.650281719956
 20
142.4045770921852
 30
0.0
 11
1070.695745567198
 21
142.4045770921852
 31
0.0
  0
SOLID
  5
70D4
330
70CD
100
AcDbEntity
  8
标注
100
AcDbTrace
 10
1062.950281720034
 20
142.5129104255185
 30
0.0
 11
1062.950281720034
 21
142.2962437588518
 31
0.0
 12
1062.300281720034
 22
142.4045770921852
 32
0.0
 13
1062.300281720034
 23
142.4045770921852
 33
0.0
  0
SOLID
  5
70D5
330
70CD
100
AcDbEntity
  8
标注
100
AcDbTrace
 10
1076.650281719956
 20
142.5129104255185
 30
0.0
 11
1076.650281719956
 21
142.2962437588518
 31
0.0
 12
1077.300281719956
 22
142.4045770921852
 32
0.0
 13
1077.300281719956
 23
142.4045770921852
 33
0.0
  0
MTEXT
  5
70D6
330
70CD
100
AcDbEntity
  8
标注
100
AcDbMText
 10
1069.800281719995
 20
142.4045770921852
 30
0.0
 40
0.65
 41
0.0
 71
     5
 72
     1
  1
\A1;15"
 73
     1
 44
1.0
1001
ACAD
1000
MTEXTBEGIN
1070
    73
1070
     1
1070
    44
1040
1.0
1070
    74
1070
     0
1000
MTEXTEND
  0
POINT
  5
70D7
330
70CD
100
AcDbEntity
  8
DEFPOINTS
 62
     0
100
AcDbPoint
 10
1062.300281720034
 20
145.7095933745531
 30
0.0
  0
POINT
  5
70D8
330
70CD
100
AcDbEntity
  8
DEFPOINTS
 62
     0
100
AcDbPoint
 10
1077.300281719956
 20
145.7095933745531
 30
0.0
  0
POINT
  5
70D9
330
70CD
100
AcDbEntity
  8
DEFPOINTS
 62
     0
100
AcDbPoint
 10
1077.300281719956
 20
142.4045770921852
 30
0.0
  0
ENDBLK
  5
70CF
330
70CD
100
AcDbEntity
  8
0
100
AcDbBlockEnd
  0
BLOCK
  5
70DC
330
70DB
100
AcDbEntity
  8
0
100
AcDbBlockBegin
  2
*D252
 70
     1
 10
0.0
 20
0.0
 30
0.0
  3
*D252
  1

  0
LINE
  5
70DE
330
70DB
100
AcDbEntity
  8
标注
370
    -2
100
AcDbLine
 10
1061.300281720015
 20
144.2834684581847
 30
0.0
 11
1061.300281720015
 21
140.4372530307021
 31
0.0
  0
LINE
  5
70DF
330
70DB
100
AcDbEntity
  8
标注
370
    -2
100
AcDbLine
 10
1078.300281719958
 20
144.2834684581847
 30
0.0
 11
1078.300281719958
 21
140.4372530307021
 31
0.0
  0
LINE
  5
70E0
330
70DB
100
AcDbEntity
  8
标注
370
    -2
100
AcDbLine
 10
1061.950281720015
 20
140.7572530307021
 30
0.0
 11
1068.904817872783
 21
140.7572530307021
 31
0.0
  0
LINE
  5
70E1
330
70DB
100
AcDbEntity
  8
标注
370
    -2
100
AcDbLine
 10
1077.650281719958
 20
140.7572530307021
 30
0.0
 11
1070.69574556719
 21
140.7572530307021
 31
0.0
  0
SOLID
  5
70E2
330
70DB
100
AcDbEntity
  8
标注
100
AcDbTrace
 10
1061.950281720015
 20
140.8655863640354
 30
0.0
 11
1061.950281720015
 21
140.6489196973688
 31
0.0
 12
1061.300281720015
 22
140.7572530307021
 32
0.0
 13
1061.300281720015
 23
140.7572530307021
 33
0.0
  0
SOLID
  5
70E3
330
70DB
100
AcDbEntity
  8
标注
100
AcDbTrace
 10
1077.650281719958
 20
140.8655863640354
 30
0.0
 11
1077.650281719958
 21
140.6489196973688
 31
0.0
 12
1078.300281719958
 22
140.7572530307021
 32
0.0
 13
1078.300281719958
 23
140.7572530307021
 33
0.0
  0
MTEXT
  5
70E4
330
70DB
100
AcDbEntity
  8
标注
100
AcDbMText
 10
1069.800281719986
 20
140.7572530307021
 30
0.0
 40
0.65
 41
0.0
 71
     5
 72
     1
  1
\A1;17"
 73
     1
 44
1.0
1001
ACAD
1000
MTEXTBEGIN
1070
    73
1070
     1
1070
    44
1040
1.0
1070
    74
1070
     0
1000
MTEXTEND
  0
POINT
  5
70E5
330
70DB
100
AcDbEntity
  8
DEFPOINTS
 62
     0
100
AcDbPoint
 10
1061.300281720015
 20
145.1634684581847
 30
0.0
  0
POINT
  5
70E6
330
70DB
100
AcDbEntity
  8
DEFPOINTS
 62
     0
100
AcDbPoint
 10
1078.300281719958
 20
145.1634684581847
 30
0.0
  0
POINT
  5
70E7
330
70DB
100
AcDbEntity
  8
DEFPOINTS
 62
     0
100
AcDbPoint
 10
1078.300281719958
 20
140.7572530307021
 30
0.0
  0
ENDBLK
  5
70DD
330
70DB
100
AcDbEntity
  8
0
100
AcDbBlockEnd
  0
BLOCK
  5
70EA
330
70E9
100
AcDbEntity
  8
0
100
AcDbBlockBegin
  2
*D253
 70
     1
 10
0.0
 20
0.0
 30
0.0
  3
*D253
  1

  0
LINE
  5
70EC
330
70E9
100
AcDbEntity
  8
标注
370
    -2
100
AcDbLine
 10
1077.786580932566
 20
145.3158925871437
 30
0.0
 11
1080.456498748095
 21
145.3158925871437
 31
0.0
  0
LINE
  5
70ED
330
70E9
100
AcDbEntity
  8
标注
370
    -2
100
AcDbLine
 10
1077.786580932566
 20
161.3158925870563
 30
0.0
 11
1080.456498748095
 21
161.3158925870563
 31
0.0
  0
LINE
  5
70EE
330
70E9
100
AcDbEntity
  8
标注
370
    -2
100
AcDbLine
 10
1080.136498748095
 20
145.9658925871437
 30
0.0
 11
1080.136498748095
 21
152.4204287398967
 31
0.0
  0
LINE
  5
70EF
330
70E9
100
AcDbEntity
  8
标注
370
    -2
100
AcDbLine
 10
1080.136498748095
 20
160.6658925870563
 30
0.0
 11
1080.136498748095
 21
154.2113564343033
 31
0.0
  0
SOLID
  5
70F0
330
70E9
100
AcDbEntity
  8
标注
100
AcDbTrace
 10
1080.028165414762
 20
145.9658925871437
 30
0.0
 11
1080.244832081428
 21
145.9658925871437
 31
0.0
 12
1080.136498748095
 22
145.3158925871437
 32
0.0
 13
1080.136498748095
 23
145.3158925871437
 33
0.0
  0
SOLID
  5
70F1
330
70E9
100
AcDbEntity
  8
标注
100
AcDbTrace
 10
1080.028165414762
 20
160.6658925870563
 30
0.0
 11
1080.244832081428
 21
160.6658925870563
 31
0.0
 12
1080.136498748095
 22
161.3158925870563
 32
0.0
 13
1080.136498748095
 23
161.3158925870563
 33
0.0
  0
MTEXT
  5
70F2
330
70E9
100
AcDbEntity
  8
标注
100
AcDbMText
 10
1080.136498748095
 20
153.3158925871001
 30
0.0
 40
0.65
 41
0.0
 71
     5
 72
     1
  1
\A1;16"
 11
0.0000000000000001
 21
1.0
 31
0.0
 73
     1
 44
1.0
1001
ACAD
1000
MTEXTBEGIN
1070
    73
1070
     1
1070
    44
1040
1.0
1070
    74
1070
     0
1000
MTEXTEND
  0
POINT
  5
70F3
330
70E9
100
AcDbEntity
  8
DEFPOINTS
 62
     0
100
AcDbPoint
 10
1076.906580932566
 20
145.3158925871437
 30
0.0
  0
POINT
  5
70F4
330
70E9
100
AcDbEntity
  8
DEFPOINTS
 62
     0
100
AcDbPoint
 10
1076.906580932566
 20
161.3158925870563
 30
0.0
  0
POINT
  5
70F5
330
70E9
100
AcDbEntity
  8
DEFPOINTS
 62
     0
100
AcDbPoint
 10
1080.136498748095
 20
161.3158925870563
 30
0.0
  0
ENDBLK
  5
70EB
330
70E9
100
AcDbEntity
  8
0
100
AcDbBlockEnd
  0
BLOCK
  5
70F8
330
70F7
100
AcDbEntity
  8
0
100
AcDbBlockBegin
  2
*D254
 70
     1
 10
0.0
 20
0.0
 30
0.0
  3
*D254
  1

  0
LINE
  5
710D
330
70F7
100
AcDbEntity
  8
标注
370
    -2
100
AcDbLine
 10
1078.180281719956
 20
144.3158925871436
 30
0.0
 11
1082.295408139432
 21
144.3158925871436
 31
0.0
  0
LINE
  5
710E
330
70F7
100
AcDbEntity
  8
标注
370
    -2
100
AcDbLine
 10
1078.180281719956
 20
162.3158925870563
 30
0.0
 11
1082.295408139432
 21
162.3158925870563
 31
0.0
  0
LINE
  5
710F
330
70F7
100
AcDbEntity
  8
标注
370
    -2
100
AcDbLine
 10
1081.975408139432
 20
144.9658925871437
 30
0.0
 11
1081.975408139432
 21
152.4204287398967
 31
0.0
  0
LINE
  5
7110
330
70F7
100
AcDbEntity
  8
标注
370
    -2
100
AcDbLine
 10
1081.975408139432
 20
161.6658925870563
 30
0.0
 11
1081.975408139432
 21
154.2113564343033
 31
0.0
  0
SOLID
  5
7111
330
70F7
100
AcDbEntity
  8
标注
100
AcDbTrace
 10
1081.867074806099
 20
144.9658925871437
 30
0.0
 11
1082.083741472765
 21
144.9658925871437
 31
0.0
 12
1081.975408139432
 22
144.3158925871436
 32
0.0
 13
1081.975408139432
 23
144.3158925871436
 33
0.0
  0
SOLID
  5
7112
330
70F7
100
AcDbEntity
  8
标注
100
AcDbTrace
 10
1081.867074806099
 20
161.6658925870563
 30
0.0
 11
1082.083741472765
 21
161.6658925870563
 31
0.0
 12
1081.975408139432
 22
162.3158925870563
 32
0.0
 13
1081.975408139432
 23
162.3158925870563
 33
0.0
  0
MTEXT
  5
7113
330
70F7
100
AcDbEntity
  8
标注
100
AcDbMText
 10
1081.975408139432
 20
153.3158925871002
 30
0.0
 40
0.65
 41
0.0
 71
     5
 72
     1
  1
\A1;18"
 11
0.0000000000000001
 21
1.0
 31
0.0
 73
     1
 44
1.0
1001
ACAD
1000
MTEXTBEGIN
1070
    73
1070
     1
1070
    44
1040
1.0
1070
    74
1070
     0
1000
MTEXTEND
  0
POINT
  5
7114
330
70F7
100
AcDbEntity
  8
DEFPOINTS
 62
     0
100
AcDbPoint
 10
1077.300281719956
 20
144.3158925871436
 30
0.0
  0
POINT
  5
7115
330
70F7
100
AcDbEntity
  8
DEFPOINTS
 62
     0
100
AcDbPoint
 10
1077.300281719956
 20
162.3158925870563
 30
0.0
  0
POINT
  5
7116
330
70F7
100
AcDbEntity
  8
DEFPOINTS
 62
     0
100
AcDbPoint
 10
1081.975408139432
 20
162.3158925870563
 30
0.0
  0
ENDBLK
  5
70F9
330
70F7
100
AcDbEntity
  8
0
100
AcDbBlockEnd
  0
BLOCK
  5
7119
330
7118
100
AcDbEntity
  8
0
100
AcDbBlockBegin
  2
*D255
 70
     1
 10
0.0
 20
0.0
 30
0.0
  3
*D255
  1

  0
LINE
  5
7121
330
7118
100
AcDbEntity
  8
标注
370
    -2
100
AcDbLine
 10
1061.797623755785
 20
161.456843388985
 30
0.0
 11
1061.239385996835
 21
161.7898157669429
 31
0.0
  0
MTEXT
  5
7122
330
7118
100
AcDbEntity
  8
标注
100
AcDbMText
 10
1060.731848142556
 20
162.6045974052977
 30
0.0
 40
0.65
 41
0.0
 71
     5
 72
     1
  1
\A1;4-R3/8"
 11
0.8588273214608868
 21
-0.5122651968583448
 31
0.0
 73
     1
 44
1.0
1001
ACAD
1000
MTEXTBEGIN
1070
    73
1070
     1
1070
    44
1040
1.0
1070
    74
1070
     0
1000
MTEXTEND
  0
LINE
  5
7123
330
7118
100
AcDbEntity
  8
标注
370
    -2
100
AcDbLine
 10
1062.693982507434
 20
160.9221917996663
 30
0.0
 11
1062.355861514734
 21
161.1238710110271
 31
0.0
  0
SOLID
  5
7124
330
7118
100
AcDbEntity
  8
标注
100
AcDbTrace
 10
1061.853119152111
 20
161.5498830154766
 30
0.0
 11
1061.742128359458
 21
161.3638037624934
 31
0.0
 12
1062.355861514734
 22
161.1238710110271
 32
0.0
 13
1062.355861514734
 23
161.1238710110271
 33
0.0
  0
POINT
  5
7125
330
7118
100
AcDbEntity
  8
DEFPOINTS
 62
     0
100
AcDbPoint
 10
1062.355861514734
 20
161.1238710110271
 30
0.0
  0
POINT
  5
7126
330
7118
100
AcDbEntity
  8
DEFPOINTS
 62
     0
100
AcDbPoint
 10
1062.693982507434
 20
160.9221917996663
 30
0.0
  0
ENDBLK
  5
711A
330
7118
100
AcDbEntity
  8
0
100
AcDbBlockEnd
  0
BLOCK
  5
7129
330
7128
100
AcDbEntity
  8
0
100
AcDbBlockBegin
  2
*D256
 70
     1
 10
0.0
 20
0.0
 30
0.0
  3
*D256
  1

  0
LINE
  5
712B
330
7128
100
AcDbEntity
  8
标注
370
    -2
100
AcDbLine
 10
1062.221541562554
 20
113.8724073341909
 30
0.0
 11
1062.221541562554
 21
111.9913198585199
 31
0.0
  0
LINE
  5
712C
330
7128
100
AcDbEntity
  8
标注
370
    -2
100
AcDbLine
 10
1077.379021877446
 20
113.8724073341909
 30
0.0
 11
1077.379021877446
 21
111.9913198585199
 31
0.0
  0
LINE
  5
712D
330
7128
100
AcDbEntity
  8
标注
370
    -2
100
AcDbLine
 10
1062.871541562554
 20
112.3113198585198
 30
0.0
 11
1068.147519100627
 21
112.3113198585198
 31
0.0
  0
LINE
  5
712E
330
7128
100
AcDbEntity
  8
标注
370
    -2
100
AcDbLine
 10
1076.729021877446
 20
112.3113198585198
 30
0.0
 11
1071.453044339372
 21
112.3113198585198
 31
0.0
  0
SOLID
  5
712F
330
7128
100
AcDbEntity
  8
标注
100
AcDbTrace
 10
1062.871541562554
 20
112.4196531918532
 30
0.0
 11
1062.871541562554
 21
112.2029865251865
 31
0.0
 12
1062.221541562554
 22
112.3113198585198
 32
0.0
 13
1062.221541562554
 23
112.3113198585198
 33
0.0
  0
SOLID
  5
7130
330
7128
100
AcDbEntity
  8
标注
100
AcDbTrace
 10
1076.729021877446
 20
112.4196531918532
 30
0.0
 11
1076.729021877446
 21
112.2029865251865
 31
0.0
 12
1077.379021877446
 22
112.3113198585198
 32
0.0
 13
1077.379021877446
 23
112.3113198585198
 33
0.0
  0
MTEXT
  5
7131
330
7128
100
AcDbEntity
  8
标注
100
AcDbMText
 10
1069.80028172
 20
112.3113198585198
 30
0.0
 40
0.65
 41
0.0
 71
     5
 72
     1
  1
\A1;15 1/8"
 73
     1
 44
1.0
1001
ACAD
1000
MTEXTBEGIN
1070
    73
1070
     1
1070
    44
1040
1.0
1070
    74
1070
     0
1000
MTEXTEND
  0
POINT
  5
7132
330
7128
100
AcDbEntity
  8
DEFPOINTS
 62
     0
100
AcDbPoint
 10
1062.221541562554
 20
114.7524073341908
 30
0.0
  0
POINT
  5
7133
330
7128
100
AcDbEntity
  8
DEFPOINTS
 62
     0
100
AcDbPoint
 10
1077.379021877446
 20
114.7524073341908
 30
0.0
  0
POINT
  5
7134
330
7128
100
AcDbEntity
  8
DEFPOINTS
 62
     0
100
AcDbPoint
 10
1077.379021877446
 20
112.3113198585198
 30
0.0
  0
ENDBLK
  5
712A
330
7128
100
AcDbEntity
  8
0
100
AcDbBlockEnd
  0
BLOCK
  5
7137
330
7136
100
AcDbEntity
  8
0
100
AcDbBlockBegin
  2
*D257
 70
     1
 10
0.0
 20
0.0
 30
0.0
  3
*D257
  1

  0
LINE
  5
7139
330
7136
100
AcDbEntity
  8
标注
370
    -2
100
AcDbLine
 10
1077.786580932566
 20
114.2799663893227
 30
0.0
 11
1080.439096881036
 21
114.2799663893227
 31
0.0
  0
LINE
  5
713A
330
7136
100
AcDbEntity
  8
标注
370
    -2
100
AcDbLine
 10
1077.786580932566
 20
130.4374467042205
 30
0.0
 11
1080.439096881036
 21
130.4374467042205
 31
0.0
  0
LINE
  5
713B
330
7136
100
AcDbEntity
  8
标注
370
    -2
100
AcDbLine
 10
1080.119096881036
 20
114.9299663893227
 30
0.0
 11
1080.119096881036
 21
120.7059439273992
 31
0.0
  0
LINE
  5
713C
330
7136
100
AcDbEntity
  8
标注
370
    -2
100
AcDbLine
 10
1080.119096881036
 20
129.7874467042205
 30
0.0
 11
1080.119096881036
 21
124.0114691661441
 31
0.0
  0
SOLID
  5
713D
330
7136
100
AcDbEntity
  8
标注
100
AcDbTrace
 10
1080.010763547702
 20
114.9299663893227
 30
0.0
 11
1080.227430214369
 21
114.9299663893227
 31
0.0
 12
1080.119096881036
 22
114.2799663893227
 32
0.0
 13
1080.119096881036
 23
114.2799663893227
 33
0.0
  0
SOLID
  5
713E
330
7136
100
AcDbEntity
  8
标注
100
AcDbTrace
 10
1080.010763547702
 20
129.7874467042205
 30
0.0
 11
1080.227430214369
 21
129.7874467042205
 31
0.0
 12
1080.119096881036
 22
130.4374467042205
 32
0.0
 13
1080.119096881036
 23
130.4374467042205
 33
0.0
  0
MTEXT
  5
713F
330
7136
100
AcDbEntity
  8
标注
100
AcDbMText
 10
1080.119096881036
 20
122.3587065467718
 30
0.0
 40
0.65
 41
0.0
 71
     5
 72
     1
  1
\A1;16 1/8"
 11
0.0000000000000001
 21
1.0
 31
0.0
 73
     1
 44
1.0
1001
ACAD
1000
MTEXTBEGIN
1070
    73
1070
     1
1070
    44
1040
1.0
1070
    74
1070
     0
1000
MTEXTEND
  0
POINT
  5
7140
330
7136
100
AcDbEntity
  8
DEFPOINTS
 62
     0
100
AcDbPoint
 10
1076.906580932566
 20
114.2799663893227
 30
0.0
  0
POINT
  5
7141
330
7136
100
AcDbEntity
  8
DEFPOINTS
 62
     0
100
AcDbPoint
 10
1076.906580932566
 20
130.4374467042205
 30
0.0
  0
POINT
  5
7142
330
7136
100
AcDbEntity
  8
DEFPOINTS
 62
     0
100
AcDbPoint
 10
1080.119096881036
 20
130.4374467042205
 30
0.0
  0
ENDBLK
  5
7138
330
7136
100
AcDbEntity
  8
0
100
AcDbBlockEnd
  0
BLOCK
  5
7145
330
7144
100
AcDbEntity
  8
0
100
AcDbBlockBegin
  2
*D258
 70
     1
 10
0.0
 20
0.0
 30
0.0
  3
*D258
  1

  0
LINE
  5
7159
330
7144
100
AcDbEntity
  8
标注
370
    -2
100
AcDbLine
 10
1061.892199624089
 20
113.9669024756968
 30
0.0
 11
1061.427891121667
 21
113.5120204969609
 31
0.0
  0
MTEXT
  5
715A
330
7144
100
AcDbEntity
  8
标注
100
AcDbMText
 10
1060.868928586479
 20
113.7487305025308
 30
0.0
 40
0.65
 41
0.0
 71
     5
 72
     1
  1
\A1;4-R1/2"
 11
0.7143207729568449
 21
0.69981842882446
 31
0.0
 73
     1
 44
1.0
1001
ACAD
1000
MTEXTBEGIN
1070
    73
1070
     1
1070
    44
1040
1.0
1070
    74
1070
     0
1000
MTEXTEND
  0
LINE
  5
715B
330
7144
100
AcDbEntity
  8
标注
370
    -2
100
AcDbLine
 10
1062.693982507433
 20
114.7524073341907
 30
0.0
 11
1062.35650812651
 21
114.4217844544327
 31
0.0
  0
SOLID
  5
715C
330
7144
100
AcDbEntity
  8
标注
100
AcDbTrace
 10
1061.816385960966
 20
114.0442872261005
 30
0.0
 11
1061.968013287212
 21
113.8895177252931
 31
0.0
 12
1062.35650812651
 22
114.4217844544327
 32
0.0
 13
1062.35650812651
 23
114.4217844544327
 33
0.0
  0
POINT
  5
715D
330
7144
100
AcDbEntity
  8
DEFPOINTS
 62
     0
100
AcDbPoint
 10
1062.35650812651
 20
114.4217844544327
 30
0.0
  0
POINT
  5
715E
330
7144
100
AcDbEntity
  8
DEFPOINTS
 62
     0
100
AcDbPoint
 10
1062.693982507433
 20
114.7524073341907
 30
0.0
  0
ENDBLK
  5
7146
330
7144
100
AcDbEntity
  8
0
100
AcDbBlockEnd
  0
ENDSEC
  0
SECTION
  2
ENTITIES
  0
LINE
  5
7005
330
5F6E
100
AcDbEntity
  8
0
100
AcDbLine
 10
1061.300281720015
 20
145.1634684581847
 30
0.0
 11
1061.300281720015
 21
161.4683167160153
 31
0.0
  0
ARC
  5
7006
330
5F6E
100
AcDbEntity
  8
0
100
AcDbCircle
 10
1061.379021877493
 20
161.4683167160153
 30
0.0
 40
0.07874015748
100
AcDbArc
 50
134.9999999999954
 51
180.0
1001
GENIUS_GENODEF_13
1002
{
1000
HIER
1070
     0
1002
}
1002
{
1000
MANEDIT
1070
     0
1002
}
1002
{
1000
NOSEL
1070
     0
1002
}
1002
{
1000
BEHIND
1070
     0
1002
}
1002
{
1000
OTHER
1070
     0
1002
}
1002
{
1000
REACTOR
1002
}
1001
GENIUS_GENOBJ-N-FIL_13
1002
{
1000
OWNER
1000
GEN
1002
}
  0
ARC
  5
7007
330
5F6E
100
AcDbEntity
  8
0
100
AcDbCircle
 10
1061.379021877493
 20
145.1634684581847
 30
0.0
 40
0.07874015748
100
AcDbArc
 50
180.0
 51
225.0000000000046
1001
GENIUS_GENODEF_13
1002
{
1000
HIER
1070
     0
1002
}
1002
{
1000
MANEDIT
1070
     0
1002
}
1002
{
1000
NOSEL
1070
     0
1002
}
1002
{
1000
BEHIND
1070
     0
1002
}
1002
{
1000
OTHER
1070
     0
1002
}
1002
{
1000
REACTOR
1002
}
1001
GENIUS_GENOBJ-N-FIL_13
1002
{
1000
OWNER
1000
GEN
1002
}
  0
LINE
  5
7008
330
5F6E
100
AcDbEntity
  8
0
100
AcDbLine
 10
1062.092179891781
 20
144.3389550453182
 30
0.0
 11
1061.323344178189
 21
145.1077907588812
 31
0.0
1001
GENIUS_GENFIL_13
1070
     0
1040
20.7
1040
20.7
1040
0.0
1040
0.0
1002
{
1002
}
1001
GENIUS_GENOBJ-N-CHA_13
1002
{
1000
OWNER
1000
GEN
1002
}
1001
GENIUS_GENODEF_13
1002
{
1000
HIER
1070
     0
1002
}
1002
{
1000
MANEDIT
1070
     0
1002
}
1002
{
1000
NOSEL
1070
     0
1002
}
1002
{
1000
BEHIND
1070
     0
1002
}
1002
{
1000
OTHER
1070
     0
1002
}
1002
{
1000
REACTOR
1002
}
  0
ARC
  5
7009
330
5F6E
100
AcDbEntity
  8
0
100
AcDbCircle
 10
1062.147857591085
 20
144.3946327446217
 30
0.0
 40
0.07874015748
100
AcDbArc
 50
225.0000000000046
 51
270.0
1001
GENIUS_GENFIL_13
1070
     0
1040
20.7
1040
20.7
1040
0.0
1040
0.0
1002
{
1002
}
1001
GENIUS_GENOBJ-N-CHA_13
1002
{
1000
OWNER
1000
GEN
1002
}
1001
GENIUS_GENODEF_13
1002
{
1000
HIER
1070
     0
1002
}
1002
{
1000
MANEDIT
1070
     0
1002
}
1002
{
1000
NOSEL
1070
     0
1002
}
1002
{
1000
BEHIND
1070
     0
1002
}
1002
{
1000
OTHER
1070
     0
1002
}
1002
{
1000
REACTOR
1002
}
1001
GENIUS_GENOBJ-N-FIL_13
1002
{
1000
OWNER
1000
GEN
1002
}
  0
LINE
  5
700A
330
5F6E
100
AcDbEntity
  8
0
100
AcDbLine
 10
1062.300281720014
 20
160.9221917996662
 30
0.0
 11
1062.300281720014
 21
145.7095933745338
 31
0.0
  0
LINE
  5
700B
330
5F6E
100
AcDbEntity
  8
0
100
AcDbLine
 10
1062.926265971979
 20
160.2962075477014
 30
0.0
 11
1062.926265971979
 21
146.3355776264986
 31
0.0
  0
LINE
  5
700C
330
5F6E
100
AcDbEntity
  8
0
100
AcDbLine
 10
1063.319966759399
 20
160.2962075477014
 30
0.0
 11
1063.319966759399
 21
146.3355776264986
 31
0.0
  0
ARC
  5
700D
330
5F6E
100
AcDbEntity
  8
细实线
 48
5.0
100
AcDbCircle
 10
1063.319966759399
 20
146.3355776264986
 30
0.0
 40
0.3937007874
100
AcDbArc
 50
180.0
 51
270.0
1001
GENIUS_GENODEF_13
1002
{
1000
HIER
1070
     0
1002
}
1002
{
1000
MANEDIT
1070
     0
1002
}
1002
{
1000
NOSEL
1070
     0
1002
}
1002
{
1000
BEHIND
1070
     0
1002
}
1002
{
1000
OTHER
1070
     0
1002
}
1002
{
1000
REACTOR
1002
}
1001
GENIUS_GENOBJ-N-FIL_13
1002
{
1000
OWNER
1000
GEN
1002
}
  0
LINE
  5
700E
330
5F6E
100
AcDbEntity
  8
0
100
AcDbLine
 10
1062.693982507434
 20
145.3158925871437
 30
0.0
 11
1076.906580932566
 21
145.3158925871437
 31
0.0
  0
LINE
  5
700F
330
5F6E
100
AcDbEntity
  8
0
100
AcDbLine
 10
1063.319966759399
 20
145.9418768391085
 30
0.0
 11
1076.280596680601
 21
145.9418768391085
 31
0.0
  0
LINE
  5
7010
330
5F6E
100
AcDbEntity
  8
0
100
AcDbLine
 10
1063.319966759399
 20
146.3355776264986
 30
0.0
 11
1076.280596680601
 21
146.3355776264986
 31
0.0
  0
LINE
  5
7011
330
5F6E
100
AcDbEntity
  8
0
100
AcDbLine
 10
1076.906580932566
 20
161.3158925870563
 30
0.0
 11
1062.693982507434
 21
161.3158925870563
 31
0.0
  0
LINE
  5
7012
330
5F6E
100
AcDbEntity
  8
0
100
AcDbLine
 10
1076.280596680601
 20
160.6899083350915
 30
0.0
 11
1063.319966759399
 21
160.6899083350915
 31
0.0
  0
LINE
  5
7013
330
5F6E
100
AcDbEntity
  8
0
100
AcDbLine
 10
1076.280596680601
 20
160.2962075477014
 30
0.0
 11
1063.319966759399
 21
160.2962075477014
 31
0.0
  0
ARC
  5
7014
330
5F6E
100
AcDbEntity
  8
细实线
 48
5.0
100
AcDbCircle
 10
1063.319966759399
 20
160.2962075477014
 30
0.0
 40
0.3937007874
100
AcDbArc
 50
90.0
 51
180.0
1001
GENIUS_GENOBJ-N-FIL_13
1002
{
1000
OWNER
1000
GEN
1002
}
1001
GENIUS_GENODEF_13
1002
{
1000
HIER
1070
     0
1002
}
1002
{
1000
MANEDIT
1070
     0
1002
}
1002
{
1000
NOSEL
1070
     0
1002
}
1002
{
1000
BEHIND
1070
     0
1002
}
1002
{
1000
OTHER
1070
     0
1002
}
1002
{
1000
REACTOR
1002
}
  0
ARC
  5
7015
330
5F6E
100
AcDbEntity
  8
0
100
AcDbCircle
 10
1062.693982507434
 20
160.9221917996662
 30
0.0
 40
0.3937007874
100
AcDbArc
 50
90.0
 51
180.0
  0
LINE
  5
7016
330
5F6E
100
AcDbEntity
  8
0
100
AcDbLine
 10
1077.300281719956
 20
145.7095933745338
 30
0.0
 11
1077.300281719956
 21
160.9221917996662
 31
0.0
  0
LINE
  5
7017
330
5F6E
100
AcDbEntity
  8
0
100
AcDbLine
 10
1076.674297467991
 20
146.3355776264986
 30
0.0
 11
1076.674297467991
 21
160.2962075477014
 31
0.0
  0
LINE
  5
7018
330
5F6E
100
AcDbEntity
  8
0
100
AcDbLine
 10
1076.280596680601
 20
146.3355776264986
 30
0.0
 11
1076.280596680601
 21
160.2962075477014
 31
0.0
  0
ARC
  5
7019
330
5F6E
100
AcDbEntity
  8
细实线
 48
5.0
100
AcDbCircle
 10
1076.280596680601
 20
146.3355776264986
 30
0.0
 40
0.3937007874
100
AcDbArc
 50
270.0
 51
0.0
1001
GENIUS_GENODEF_13
1002
{
1000
HIER
1070
     0
1002
}
1002
{
1000
MANEDIT
1070
     0
1002
}
1002
{
1000
NOSEL
1070
     0
1002
}
1002
{
1000
BEHIND
1070
     0
1002
}
1002
{
1000
OTHER
1070
     0
1002
}
1002
{
1000
REACTOR
1002
}
1001
GENIUS_GENOBJ-N-FIL_13
1002
{
1000
OWNER
1000
GEN
1002
}
  0
ARC
  5
701A
330
5F6E
100
AcDbEntity
  8
细实线
 48
5.0
100
AcDbCircle
 10
1076.280596680601
 20
160.2962075477014
 30
0.0
 40
0.3937007874
100
AcDbArc
 50
0.0
 51
90.0
1001
GENIUS_GENODEF_13
1002
{
1000
HIER
1070
     0
1002
}
1002
{
1000
MANEDIT
1070
     0
1002
}
1002
{
1000
NOSEL
1070
     0
1002
}
1002
{
1000
BEHIND
1070
     0
1002
}
1002
{
1000
OTHER
1070
     0
1002
}
1002
{
1000
REACTOR
1002
}
1001
GENIUS_GENOBJ-N-FIL_13
1002
{
1000
OWNER
1000
GEN
1002
}
  0
LINE
  5
701B
330
5F6E
100
AcDbEntity
  8
0
100
AcDbLine
 10
1077.452705848915
 20
162.3158925870563
 30
0.0
 11
1062.147857591085
 21
162.3158925870563
 31
0.0
  0
ARC
  5
701C
330
5F6E
100
AcDbEntity
  8
0
100
AcDbCircle
 10
1062.147857591085
 20
162.2371524295783
 30
0.0
 40
0.07874015748
100
AcDbArc
 50
90.0
 51
134.9999999999954
1001
GENIUS_GENODEF_13
1002
{
1000
HIER
1070
     0
1002
}
1002
{
1000
MANEDIT
1070
     0
1002
}
1002
{
1000
NOSEL
1070
     0
1002
}
1002
{
1000
BEHIND
1070
     0
1002
}
1002
{
1000
OTHER
1070
     0
1002
}
1002
{
1000
REACTOR
1002
}
1001
GENIUS_GENOBJ-N-FIL_13
1002
{
1000
OWNER
1000
GEN
1002
}
  0
LINE
  5
701D
330
5F6E
100
AcDbEntity
  8
0
100
AcDbLine
 10
1061.323344178189
 20
161.5239944153188
 30
0.0
 11
1062.092179891781
 21
162.2928301288818
 31
0.0
1001
GENIUS_GENFIL_13
1070
     0
1040
20.7
1040
20.7
1040
0.0
1040
0.0
1002
{
1002
}
1001
GENIUS_GENOBJ-N-CHA_13
1002
{
1000
OWNER
1000
GEN
1002
}
1001
GENIUS_GENODEF_13
1002
{
1000
HIER
1070
     0
1002
}
1002
{
1000
MANEDIT
1070
     0
1002
}
1002
{
1000
NOSEL
1070
     0
1002
}
1002
{
1000
BEHIND
1070
     0
1002
}
1002
{
1000
OTHER
1070
     0
1002
}
1002
{
1000
REACTOR
1002
}
  0
LINE
  5
701E
330
5F6E
100
AcDbEntity
  8
0
100
AcDbLine
 10
1078.300281719956
 20
145.1634684581847
 30
0.0
 11
1078.300281719956
 21
161.4683167160153
 31
0.0
  0
ARC
  5
701F
330
5F6E
100
AcDbEntity
  8
0
100
AcDbCircle
 10
1078.221541562478
 20
145.1634684581847
 30
0.0
 40
0.07874015748
100
AcDbArc
 50
314.9999999999954
 51
0.0
1001
GENIUS_GENODEF_13
1002
{
1000
HIER
1070
     0
1002
}
1002
{
1000
MANEDIT
1070
     0
1002
}
1002
{
1000
NOSEL
1070
     0
1002
}
1002
{
1000
BEHIND
1070
     0
1002
}
1002
{
1000
OTHER
1070
     0
1002
}
1002
{
1000
REACTOR
1002
}
1001
GENIUS_GENOBJ-N-FIL_13
1002
{
1000
OWNER
1000
GEN
1002
}
  0
ARC
  5
7020
330
5F6E
100
AcDbEntity
  8
0
100
AcDbCircle
 10
1078.221541562478
 20
161.4683167160153
 30
0.0
 40
0.07874015748
100
AcDbArc
 50
0.0
 51
45.0000000000046
1001
GENIUS_GENODEF_13
1002
{
1000
HIER
1070
     0
1002
}
1002
{
1000
MANEDIT
1070
     0
1002
}
1002
{
1000
NOSEL
1070
     0
1002
}
1002
{
1000
BEHIND
1070
     0
1002
}
1002
{
1000
OTHER
1070
     0
1002
}
1002
{
1000
REACTOR
1002
}
1001
GENIUS_GENOBJ-N-FIL_13
1002
{
1000
OWNER
1000
GEN
1002
}
  0
LINE
  5
7021
330
5F6E
100
AcDbEntity
  8
0
100
AcDbLine
 10
1077.508383548219
 20
144.3389550453182
 30
0.0
 11
1078.277219261782
 21
145.1077907588812
 31
0.0
1001
GENIUS_GENFIL_13
1070
     0
1040
20.7
1040
20.7
1040
0.0
1040
0.0
1002
{
1002
}
1001
GENIUS_GENOBJ-N-CHA_13
1002
{
1000
OWNER
1000
GEN
1002
}
1001
GENIUS_GENODEF_13
1002
{
1000
HIER
1070
     0
1002
}
1002
{
1000
MANEDIT
1070
     0
1002
}
1002
{
1000
NOSEL
1070
     0
1002
}
1002
{
1000
BEHIND
1070
     0
1002
}
1002
{
1000
OTHER
1070
     0
1002
}
1002
{
1000
REACTOR
1002
}
  0
LINE
  5
7022
330
5F6E
100
AcDbEntity
  8
0
100
AcDbLine
 10
1077.508383548219
 20
162.2928301288818
 30
0.0
 11
1078.277219261782
 21
161.5239944153188
 31
0.0
1001
GENIUS_GENFIL_13
1070
     0
1040
20.7
1040
20.7
1040
0.0
1040
0.0
1002
{
1002
}
1001
GENIUS_GENODEF_13
1002
{
1000
HIER
1070
     0
1002
}
1002
{
1000
MANEDIT
1070
     0
1002
}
1002
{
1000
NOSEL
1070
     0
1002
}
1002
{
1000
BEHIND
1070
     0
1002
}
1002
{
1000
OTHER
1070
     0
1002
}
1002
{
1000
REACTOR
1002
}
1001
GENIUS_GENOBJ-N-CHA_13
1002
{
1000
OWNER
1000
GEN
1002
}
  0
ARC
  5
7023
330
5F6E
100
AcDbEntity
  8
0
100
AcDbCircle
 10
1077.452705848915
 20
162.2371524295783
 30
0.0
 40
0.07874015748
100
AcDbArc
 50
45.0000000000046
 51
90.0
1001
GENIUS_GENFIL_13
1070
     0
1040
20.7
1040
20.7
1040
0.0
1040
0.0
1002
{
1002
}
1001
GENIUS_GENOBJ-N-CHA_13
1002
{
1000
OWNER
1000
GEN
1002
}
1001
GENIUS_GENODEF_13
1002
{
1000
HIER
1070
     0
1002
}
1002
{
1000
MANEDIT
1070
     0
1002
}
1002
{
1000
NOSEL
1070
     0
1002
}
1002
{
1000
BEHIND
1070
     0
1002
}
1002
{
1000
OTHER
1070
     0
1002
}
1002
{
1000
REACTOR
1002
}
1001
GENIUS_GENOBJ-N-FIL_13
1002
{
1000
OWNER
1000
GEN
1002
}
  0
LINE
  5
7024
330
5F6E
100
AcDbEntity
  8
0
100
AcDbLine
 10
1062.147857591085
 20
144.3158925871436
 30
0.0
 11
1077.452705848915
 21
144.3158925871436
 31
0.0
  0
ARC
  5
7025
330
5F6E
100
AcDbEntity
  8
0
100
AcDbCircle
 10
1077.452705848915
 20
144.3946327446217
 30
0.0
 40
0.07874015748
100
AcDbArc
 50
270.0
 51
314.9999999999954
1001
GENIUS_GENODEF_13
1002
{
1000
HIER
1070
     0
1002
}
1002
{
1000
MANEDIT
1070
     0
1002
}
1002
{
1000
NOSEL
1070
     0
1002
}
1002
{
1000
BEHIND
1070
     0
1002
}
1002
{
1000
OTHER
1070
     0
1002
}
1002
{
1000
REACTOR
1002
}
1001
GENIUS_GENOBJ-N-FIL_13
1002
{
1000
OWNER
1000
GEN
1002
}
  0
CIRCLE
  5
7026
330
5F6E
100
AcDbEntity
  8
0
100
AcDbCircle
 10
1069.800281719985
 20
156.095420146147
 30
0.0
 40
2.28346456692
  0
CIRCLE
  5
7027
330
5F6E
100
AcDbEntity
  8
0
100
AcDbCircle
 10
1069.800281719985
 20
156.095420146147
 30
0.0
 40
2.1653543307
  0
CIRCLE
  5
7028
330
5F6E
100
AcDbEntity
  8
0
100
AcDbCircle
 10
1069.800281719985
 20
156.095420146147
 30
0.0
 40
1.7716535433
  0
LINE
  5
7029
330
5F6E
100
AcDbEntity
  8
细实线
 48
5.0
100
AcDbLine
 10
1063.319966759399
 20
160.2962075477014
 30
0.0
 11
1067.884184324863
 21
157.3375075829869
 31
0.0
  0
LINE
  5
702A
330
5F6E
100
AcDbEntity
  8
0
100
AcDbLine
 10
1061.300281720335
 20
181.6483556837381
 30
0.0
 11
1062.208506912848
 21
181.6483556837381
 31
0.0
  0
ARC
  5
702B
330
5F6E
100
AcDbEntity
  8
虚线
 48
2.5
370
     9
100
AcDbCircle
 10
1062.208506911422
 20
181.549930486876
 30
0.0
 40
0.09842519685
100
AcDbArc
 50
4.005089391076135
 51
90.0
  0
LINE
  5
702C
330
5F6E
100
AcDbEntity
  8
0
100
AcDbLine
 10
1061.300281720335
 20
181.589300565615
 30
0.0
 11
1062.20849636661
 21
181.589300565615
 31
0.0
  0
LINE
  5
702D
330
5F6E
100
AcDbEntity
  8
0
100
AcDbLine
 10
1061.300281720335
 20
181.6483556837381
 30
0.0
 11
1061.300281720335
 21
181.589300565615
 31
0.0
  0
LINE
  5
702E
330
5F6E
100
AcDbEntity
  8
虚线
 48
2.5
370
     9
100
AcDbLine
 10
1062.306691739196
 20
181.5568050029876
 30
0.0
 11
1062.900215432467
 21
173.0798415612559
 31
0.0
  0
ARC
  5
702F
330
5F6E
100
AcDbEntity
  8
虚线
 48
2.5
370
     9
100
AcDbCircle
 10
1063.292954743531
 20
173.107339625644
 30
0.0
 40
0.3937007874
100
AcDbArc
 50
184.0050893910761
 51
269.3641264640745
  0
LINE
  5
7030
330
5F6E
100
AcDbEntity
  8
0
100
AcDbLine
 10
1062.247770294791
 20
181.5526803350555
 30
0.0
 11
1062.84135840977
 21
173.0749413495548
 31
0.0
  0
ARC
  5
7031
330
5F6E
100
AcDbEntity
  8
0
100
AcDbCircle
 10
1062.20849636661
 20
181.549930486876
 30
0.0
 40
0.03937007874
100
AcDbArc
 50
4.005150276067277
 51
90.0
  0
LINE
  5
7032
330
5F6E
100
AcDbEntity
  8
0
100
AcDbLine
 10
1062.208506911422
 20
181.6483556837381
 30
0.0
 11
1077.392056528548
 21
181.6483556837381
 31
0.0
  0
LINE
  5
7033
330
5F6E
100
AcDbEntity
  8
0
100
AcDbLine
 10
1078.300281719956
 20
181.6483556837381
 30
0.0
 11
1077.392056528548
 21
181.6483556837381
 31
0.0
  0
ARC
  5
7034
330
5F6E
100
AcDbEntity
  8
虚线
 48
2.5
370
     9
100
AcDbCircle
 10
1077.392056528548
 20
181.549930486876
 30
0.0
 40
0.09842519685
100
AcDbArc
 50
90.0
 51
175.9949106089238
  0
LINE
  5
7035
330
5F6E
100
AcDbEntity
  8
虚线
 48
2.5
370
     9
100
AcDbLine
 10
1077.293871700804
 20
181.5568050029876
 30
0.0
 11
1076.700348007504
 21
173.0798415612559
 31
0.0
  0
ARC
  5
7036
330
5F6E
100
AcDbEntity
  8
虚线
 48
2.5
370
     9
100
AcDbCircle
 10
1076.30760869644
 20
173.107339625644
 30
0.0
 40
0.3937007874
100
AcDbArc
 50
270.6358735359255
 51
355.9949106089239
  0
LINE
  5
7037
330
5F6E
100
AcDbEntity
  8
虚线
 48
2.5
370
     9
100
AcDbLine
 10
1076.311977932387
 20
172.7136630835782
 30
0.0
 11
1072.156742427306
 21
172.5850840302198
 31
0.0
  0
LINE
  5
7038
330
5F6E
100
AcDbEntity
  8
虚线
 48
2.5
370
     9
100
AcDbLine
 10
1067.443821534613
 20
172.5850840302198
 30
0.0
 11
1072.156742427306
 21
172.5850840302198
 31
0.0
  0
LINE
  5
7039
330
5F6E
100
AcDbEntity
  8
中心线
 48
2.5
100
AcDbLine
 10
1069.800281719985
 20
170.5381634281554
 30
0.0
 11
1069.800281719985
 21
174.5138943960962
 31
0.0
  0
ARC
  5
703A
330
5F6E
100
AcDbEntity
  8
虚线
 48
2.5
370
     9
100
AcDbCircle
 10
1072.156742427306
 20
172.4669737940027
 30
0.0
 40
0.11811023622
100
AcDbArc
 50
90.0
 51
153.4349489556667
  0
ARC
  5
703B
330
5F6E
100
AcDbEntity
  8
虚线
 48
2.5
370
     9
100
AcDbCircle
 10
1067.443821012694
 20
172.4669737940027
 30
0.0
 40
0.11811023622
100
AcDbArc
 50
26.5650513284626
 51
90.0
  0
ARC
  5
703C
330
5F6E
100
AcDbEntity
  8
虚线
 48
2.5
370
     9
100
AcDbCircle
 10
1071.92913798049
 20
172.4079186759088
 30
0.0
 40
0.05905511811
100
AcDbArc
 50
270.0000000416882
 51
333.4349483493782
  0
ARC
  5
703D
330
5F6E
100
AcDbEntity
  8
虚线
 48
2.5
370
     9
100
AcDbCircle
 10
1067.671425459481
 20
172.4079186759088
 30
0.0
 40
0.05905511811
100
AcDbArc
 50
206.5650522188747
 51
269.9999999583118
  0
LINE
  5
703E
330
5F6E
100
AcDbEntity
  8
虚线
 48
2.5
370
     9
100
AcDbLine
 10
1067.61860495609
 20
172.3815084242275
 30
0.0
 11
1067.549462019477
 21
172.5197942974234
 31
0.0
  0
LINE
  5
703F
330
5F6E
100
AcDbEntity
  8
虚线
 48
2.5
370
     9
100
AcDbLine
 10
1071.92913798049
 20
172.3488635577857
 30
0.0
 11
1071.571935263299
 21
172.3488635577857
 31
0.0
  0
LINE
  5
7040
330
5F6E
100
AcDbEntity
  8
虚线
 48
2.5
370
     9
100
AcDbLine
 10
1068.028628176701
 20
172.2898084396917
 30
0.0
 11
1068.028628176701
 21
172.3488635577857
 31
0.0
  0
LINE
  5
7041
330
5F6E
100
AcDbEntity
  8
虚线
 48
2.5
370
     9
100
AcDbLine
 10
1071.981958483881
 20
172.3815084242275
 30
0.0
 11
1072.051101420494
 21
172.5197942974234
 31
0.0
  0
LINE
  5
7042
330
5F6E
100
AcDbEntity
  8
虚线
 48
2.5
370
     9
100
AcDbLine
 10
1071.571935263299
 20
172.2898084396917
 30
0.0
 11
1071.571935263299
 21
172.3488635577857
 31
0.0
  0
LINE
  5
7043
330
5F6E
100
AcDbEntity
  8
虚线
 48
2.5
370
     9
100
AcDbLine
 10
1068.028628176701
 20
172.3488635577857
 30
0.0
 11
1067.671425459481
 21
172.3488635577857
 31
0.0
  0
LINE
  5
7044
330
5F6E
100
AcDbEntity
  8
虚线
 48
2.5
370
     9
100
AcDbLine
 10
1071.571935263299
 20
172.3488635577857
 30
0.0
 11
1068.028628176701
 21
172.3488635577857
 31
0.0
  0
LINE
  5
7045
330
5F6E
100
AcDbEntity
  8
0
100
AcDbLine
 10
1072.034778987302
 20
172.3550981725172
 30
0.0
 11
1072.103921923914
 21
172.4933840457131
 31
0.0
  0
ARC
  5
7046
330
5F6E
100
AcDbEntity
  8
0
100
AcDbCircle
 10
1072.156742427306
 20
172.4669737940027
 30
0.0
 40
0.05905511811
100
AcDbArc
 50
90.0
 51
153.4349489556667
  0
LINE
  5
7047
330
5F6E
100
AcDbEntity
  8
0
100
AcDbLine
 10
1076.312549077539
 20
172.6538362438047
 30
0.0
 11
1072.156742427306
 21
172.5260289121258
 31
0.0
  0
ARC
  5
7048
330
5F6E
100
AcDbEntity
  8
0
100
AcDbCircle
 10
1071.92913798049
 20
172.4079186759088
 30
0.0
 40
0.11811023622
100
AcDbArc
 50
270.0000000416882
 51
333.4349483493782
  0
LINE
  5
7049
330
5F6E
100
AcDbEntity
  8
0
100
AcDbLine
 10
1071.92913798049
 20
172.2898084396917
 30
0.0
 11
1071.571935263299
 21
172.2898084396917
 31
0.0
  0
LINE
  5
704A
330
5F6E
100
AcDbEntity
  8
0
100
AcDbLine
 10
1071.571935263299
 20
172.2898084396917
 30
0.0
 11
1068.028628176701
 21
172.2898084396917
 31
0.0
  0
LINE
  5
704B
330
5F6E
100
AcDbEntity
  8
0
100
AcDbLine
 10
1068.028628176701
 20
172.2898084396917
 30
0.0
 11
1067.671425459481
 21
172.2898084396917
 31
0.0
  0
ARC
  5
704C
330
5F6E
100
AcDbEntity
  8
0
100
AcDbCircle
 10
1067.671425459481
 20
172.4079186759088
 30
0.0
 40
0.11811023622
100
AcDbArc
 50
206.5650522188747
 51
269.9999999583118
  0
LINE
  5
704D
330
5F6E
100
AcDbEntity
  8
0
100
AcDbLine
 10
1067.565784452698
 20
172.3550981725172
 30
0.0
 11
1067.496641516086
 21
172.4933840457131
 31
0.0
  0
ARC
  5
704E
330
5F6E
100
AcDbEntity
  8
0
100
AcDbCircle
 10
1067.443821012694
 20
172.4669737940027
 30
0.0
 40
0.05905511811
100
AcDbArc
 50
26.5650513284626
 51
90.0
  0
LINE
  5
704F
330
5F6E
100
AcDbEntity
  8
0
100
AcDbLine
 10
1078.300281719956
 20
181.589300565615
 30
0.0
 11
1077.392067073361
 21
181.589300565615
 31
0.0
  0
ARC
  5
7050
330
5F6E
100
AcDbEntity
  8
0
100
AcDbCircle
 10
1077.392067073361
 20
181.549930486876
 30
0.0
 40
0.03937007874
100
AcDbArc
 50
90.0
 51
175.9948497239327
  0
LINE
  5
7051
330
5F6E
100
AcDbEntity
  8
0
100
AcDbLine
 10
1077.35279314518
 20
181.5526803350555
 30
0.0
 11
1076.759205030231
 21
173.0749413495548
 31
0.0
  0
ARC
  5
7052
330
5F6E
100
AcDbEntity
  8
0
100
AcDbCircle
 10
1076.3075548561
 20
173.106564603561
 30
0.0
 40
0.4527559055100001
100
AcDbArc
 50
270.6320262214024
 51
355.9948497239327
  0
LINE
  5
7053
330
5F6E
100
AcDbEntity
  8
0
100
AcDbLine
 10
1078.300281719956
 20
181.6483556837381
 30
0.0
 11
1078.300281719956
 21
181.589300565615
 31
0.0
  0
LINE
  5
7054
330
5F6E
100
AcDbEntity
  8
虚线
 48
2.5
370
     9
100
AcDbLine
 10
1063.288585507584
 20
172.7136630835782
 30
0.0
 11
1067.443821012694
 21
172.5850840302198
 31
0.0
  0
LINE
  5
7055
330
5F6E
100
AcDbEntity
  8
0
100
AcDbLine
 10
1063.288014362432
 20
172.6538362438047
 30
0.0
 11
1067.443821012694
 21
172.5260289121258
 31
0.0
  0
ARC
  5
7056
330
5F6E
100
AcDbEntity
  8
0
100
AcDbCircle
 10
1063.293008583871
 20
173.106564603561
 30
0.0
 40
0.4527559055100001
100
AcDbArc
 50
184.0051502760672
 51
269.3679737785976
  0
POINT
  5
7057
330
5F6E
100
AcDbEntity
  8
0
100
AcDbPoint
 10
1062.300281720014
 20
181.6483556837381
 30
0.0
  0
POINT
  5
7058
330
5F6E
100
AcDbEntity
  8
0
100
AcDbPoint
 10
1077.300281719956
 20
181.6483556837381
 30
0.0
  0
LINE
  5
7059
330
5F6E
100
AcDbEntity
  8
0
100
AcDbLine
 10
1062.693982507434
 20
161.3158925870563
 30
0.0
 11
1063.319966759399
 21
160.6899083350915
 31
0.0
  0
LINE
  5
705A
330
5F6E
100
AcDbEntity
  8
0
100
AcDbLine
 10
1062.300281720014
 20
160.9221917996662
 30
0.0
 11
1062.926265971979
 21
160.2962075477014
 31
0.0
  0
ARC
  5
705B
330
5F6E
100
AcDbEntity
  8
0
100
AcDbCircle
 10
1076.906580932566
 20
160.9221917996662
 30
0.0
 40
0.3937007874
100
AcDbArc
 50
0.0
 51
90.0
  0
ARC
  5
705C
330
5F6E
100
AcDbEntity
  8
0
100
AcDbCircle
 10
1062.693982507434
 20
145.7095933745338
 30
0.0
 40
0.3937007874
100
AcDbArc
 50
180.0
 51
270.0
  0
ARC
  5
705D
330
5F6E
100
AcDbEntity
  8
0
100
AcDbCircle
 10
1076.906580932566
 20
145.7095933745338
 30
0.0
 40
0.3937007874
100
AcDbArc
 50
270.0
 51
0.0
  0
LINE
  5
705E
330
5F6E
100
AcDbEntity
  8
细实线
 48
5.0
100
AcDbLine
 10
1063.319966759399
 20
146.3355776264986
 30
0.0
 11
1068.537187393999
 21
154.1931049377788
 31
0.0
  0
LINE
  5
705F
330
5F6E
100
AcDbEntity
  8
细实线
 48
5.0
100
AcDbLine
 10
1076.280596680601
 20
146.3355776264986
 30
0.0
 11
1071.063376046001
 21
154.1931049377788
 31
0.0
  0
LINE
  5
7060
330
5F6E
100
AcDbEntity
  8
细实线
 48
5.0
100
AcDbLine
 10
1076.280596680601
 20
160.2962075477014
 30
0.0
 11
1071.716379115253
 21
157.3375075827832
 31
0.0
  0
LINE
  5
7061
330
5F6E
100
AcDbEntity
  8
0
100
AcDbLine
 10
1076.906580932566
 20
161.3158925870563
 30
0.0
 11
1076.280596680601
 21
160.6899083350915
 31
0.0
  0
LINE
  5
7062
330
5F6E
100
AcDbEntity
  8
0
100
AcDbLine
 10
1077.300281719956
 20
160.9221917996662
 30
0.0
 11
1076.674297467991
 21
160.2962075477014
 31
0.0
  0
LINE
  5
7063
330
5F6E
100
AcDbEntity
  8
0
100
AcDbLine
 10
1062.693982507434
 20
145.3158925871437
 30
0.0
 11
1063.319966759399
 21
145.9418768391085
 31
0.0
  0
LINE
  5
7064
330
5F6E
100
AcDbEntity
  8
0
100
AcDbLine
 10
1062.300281720014
 20
145.7095933745338
 30
0.0
 11
1062.926265971979
 21
146.3355776264986
 31
0.0
  0
LINE
  5
7065
330
5F6E
100
AcDbEntity
  8
0
100
AcDbLine
 10
1076.906580932566
 20
145.3158925871437
 30
0.0
 11
1076.280596680601
 21
145.9418768391085
 31
0.0
  0
LINE
  5
7066
330
5F6E
100
AcDbEntity
  8
0
100
AcDbLine
 10
1077.300281719956
 20
145.7095933745338
 30
0.0
 11
1076.674297467991
 21
146.3355776264986
 31
0.0
  0
LINE
  5
7067
330
5F6E
100
AcDbEntity
  8
0
100
AcDbLine
 10
1067.443821012694
 20
172.5260289121258
 30
0.0
 11
1072.156742427306
 21
172.5260289121258
 31
0.0
  0
LINE
  5
7068
330
5F6E
100
AcDbEntity
  8
0
100
AcDbLine
 10
1062.20849636661
 20
181.589300565615
 30
0.0
 11
1077.392067073361
 21
181.589300565615
 31
0.0
  0
LINE
  5
7069
330
5F6E
100
AcDbEntity
  8
细实线
 48
5.0
100
AcDbLine
 10
1076.280596680601
 20
146.3355776264986
 30
0.0
 11
1076.674297467991
 21
146.3355776264986
 31
0.0
  0
LINE
  5
706A
330
5F6E
100
AcDbEntity
  8
细实线
 48
5.0
100
AcDbLine
 10
1076.280596680601
 20
146.3355776264986
 30
0.0
 11
1076.280596680601
 21
145.9418768391085
 31
0.0
  0
LINE
  5
706B
330
5F6E
100
AcDbEntity
  8
细实线
 48
5.0
100
AcDbLine
 10
1076.280596680601
 20
160.2962075477014
 30
0.0
 11
1076.280596680601
 21
160.6899083350915
 31
0.0
  0
LINE
  5
706C
330
5F6E
100
AcDbEntity
  8
细实线
 48
5.0
100
AcDbLine
 10
1076.280596680601
 20
160.2962075477014
 30
0.0
 11
1076.674297467991
 21
160.2962075477014
 31
0.0
  0
LINE
  5
706D
330
5F6E
100
AcDbEntity
  8
细实线
 48
5.0
100
AcDbLine
 10
1063.319966759399
 20
160.2962075477014
 30
0.0
 11
1063.319966759399
 21
160.6899083350915
 31
0.0
  0
LINE
  5
706E
330
5F6E
100
AcDbEntity
  8
细实线
 48
5.0
100
AcDbLine
 10
1063.319966759399
 20
160.2962075477014
 30
0.0
 11
1062.926265971979
 21
160.2962075477014
 31
0.0
  0
LINE
  5
706F
330
5F6E
100
AcDbEntity
  8
细实线
 48
5.0
100
AcDbLine
 10
1063.319966759399
 20
146.3355776264986
 30
0.0
 11
1062.926265971979
 21
146.3355776264986
 31
0.0
  0
LINE
  5
7070
330
5F6E
100
AcDbEntity
  8
细实线
 48
5.0
100
AcDbLine
 10
1063.319966759399
 20
146.3355776264986
 30
0.0
 11
1063.319966759399
 21
145.9418768391085
 31
0.0
  0
LINE
  5
7071
330
5F6E
100
AcDbEntity
  8
中心线
  6
Continuous
 62
     1
100
AcDbLine
 10
1062.221541562537
 20
129.9650057593233
 30
0.0
 11
1062.221541562537
 21
114.7524073341908
 31
0.0
  0
ARC
  5
7072
330
5F6E
100
AcDbEntity
  8
中心线
  6
Continuous
 62
     1
100
AcDbCircle
 10
1062.693982507434
 20
114.7524073341908
 30
0.0
 40
0.47244094488
100
AcDbArc
 50
180.0
 51
270.0
  0
LINE
  5
7073
330
5F6E
100
AcDbEntity
  8
中心线
  6
Continuous
 62
     1
100
AcDbLine
 10
1062.693982507434
 20
114.2799663893227
 30
0.0
 11
1076.906580932566
 21
114.2799663893227
 31
0.0
  0
ARC
  5
7074
330
5F6E
100
AcDbEntity
  8
中心线
  6
Continuous
 62
     1
100
AcDbCircle
 10
1076.906580932566
 20
114.7524073341908
 30
0.0
 40
0.47244094488
100
AcDbArc
 50
270.0
 51
0.0
  0
LINE
  5
7075
330
5F6E
100
AcDbEntity
  8
中心线
  6
Continuous
 62
     1
100
AcDbLine
 10
1076.906580932566
 20
130.4374467042205
 30
0.0
 11
1062.693982507434
 21
130.4374467042205
 31
0.0
  0
ARC
  5
7076
330
5F6E
100
AcDbEntity
  8
中心线
  6
Continuous
 62
     1
100
AcDbCircle
 10
1076.906580932566
 20
129.9650057593233
 30
0.0
 40
0.47244094488
100
AcDbArc
 50
0.0
 51
90.0
  0
ARC
  5
7077
330
5F6E
100
AcDbEntity
  8
中心线
  6
Continuous
 62
     1
100
AcDbCircle
 10
1062.693982507434
 20
129.9650057593233
 30
0.0
 40
0.47244094488
100
AcDbArc
 50
90.0
 51
180.0
  0
LINE
  5
7078
330
5F6E
100
AcDbEntity
  8
中心线
  6
Continuous
 62
     1
100
AcDbLine
 10
1077.379021877434
 20
114.7524073341908
 30
0.0
 11
1077.379021877434
 21
129.9650057593233
 31
0.0
  0
TEXT
  5
7079
330
5F6E
100
AcDbEntity
  8
标注
100
AcDbText
 10
1066.483938049197
 20
168.7337358424907
 30
0.0
 40
0.7874015748031497
  1
FRONT VIEW
100
AcDbText
  0
TEXT
  5
707A
330
5F6E
100
AcDbEntity
  8
标注
100
AcDbText
 10
1065.390652959004
 20
136.4490952332667
 30
0.0
 40
0.7874015748031497
  1
OVERHEAD VIEW
100
AcDbText
  0
TEXT
  5
707B
330
5F6E
100
AcDbEntity
  8
标注
100
AcDbText
 10
1071.252379556234
 20
108.4890816082941
 30
0.0
 40
0.7874015748031497
  1
 CUTOUT
100
AcDbText
  0
LINE
  5
707C
330
5F6E
100
AcDbEntity
  8
中心线
  6
Continuous
 62
     1
100
AcDbLine
 10
1063.586973475668
 20
108.7422830755989
 30
0.0
 11
1069.803778479752
 21
108.7422830755989
 31
0.0
  0
DIMENSION
  5
707D
330
5F6E
100
AcDbEntity
  8
标注
100
AcDbDimension
  2
*D248
 10
1080.542593747907
 20
172.6483556837381
 30
0.0
 11
1080.542593747907
 21
177.1483556837383
 31
0.0
 70
    32
 71
     5
 42
9.0
  3
副本STANDARD
100
AcDbAlignedDimension
 13
1078.300281719956
 23
181.6483556837381
 33
0.0
 14
1078.300281719956
 24
172.6483556837381
 34
0.0
 50
90.0
100
AcDbRotatedDimension
  0
DIMENSION
  5
708B
330
5F6E
100
AcDbEntity
  8
标注
100
AcDbDimension
  2
*D249
 10
1077.392056528548
 20
181.6483556837381
 30
0.0
 11
1075.297664657736
 21
179.7810513403428
 31
0.0
 70
    34
 71
     5
 42
1.500894330299971
  3
STANDARD
100
AcDb2LineAngularDimension
 13
1077.293871700804
 23
181.5568050029876
 33
0.0
 14
1076.700348007504
 24
173.0798415612559
 34
0.0
 15
1062.208506911422
 25
181.6483556837381
 35
0.0
 16
1074.897746883068
 26
180.3349147957348
 36
0.0
  0
DIMENSION
  5
70C2
330
5F6E
100
AcDbEntity
  8
标注
100
AcDbDimension
  2
*D250
 10
1063.292954743531
 20
173.1073396256443
 30
0.0
 11
1061.990755455854
 21
172.6820784371186
 31
0.0
 70
   164
 71
     5
 42
0.3937007873998937
  3
副本STANDARD
100
AcDbRadialDimension
 15
1063.000297198879
 25
172.843992190575
 35
0.0
 40
0.0
1001
ACAD
1000
DSTYLE
1002
{
1070
   288
1070
     1
1002
}
1001
ACAD_DSTYLE_DIMRADIAL_EXTENSION
1070
   387
1070
     1
1070
   388
1040
3.211494650300766
1070
   390
1040
4.701290893556491
  0
DIMENSION
  5
70CC
330
5F6E
100
AcDbEntity
  8
标注
100
AcDbDimension
  2
*D251
 10
1077.300281719956
 20
142.4045770921852
 30
0.0
 11
1069.800281719995
 21
142.4045770921852
 31
0.0
 70
    32
 71
     5
 42
14.99999999992246
  3
副本STANDARD
100
AcDbAlignedDimension
 13
1062.300281720034
 23
145.7095933745531
 33
0.0
 14
1077.300281719956
 24
145.7095933745531
 34
0.0
100
AcDbRotatedDimension
  0
DIMENSION
  5
70DA
330
5F6E
100
AcDbEntity
  8
标注
100
AcDbDimension
  2
*D252
 10
1078.300281719958
 20
140.7572530307021
 30
0.0
 11
1069.800281719986
 21
140.7572530307021
 31
0.0
 70
    32
 71
     5
 42
16.99999999994384
  3
副本STANDARD
100
AcDbAlignedDimension
 13
1061.300281720015
 23
145.1634684581847
 33
0.0
 14
1078.300281719958
 24
145.1634684581847
 34
0.0
100
AcDbRotatedDimension
  0
DIMENSION
  5
70E8
330
5F6E
100
AcDbEntity
  8
标注
100
AcDbDimension
  2
*D253
 10
1080.136498748095
 20
161.3158925870563
 30
0.0
 11
1080.136498748095
 21
153.3158925871001
 31
0.0
 70
    32
 71
     5
 42
15.99999999991266
  3
副本STANDARD
100
AcDbAlignedDimension
 13
1076.906580932566
 23
145.3158925871437
 33
0.0
 14
1076.906580932566
 24
161.3158925870563
 34
0.0
 50
90.0
100
AcDbRotatedDimension
  0
DIMENSION
  5
70F6
330
5F6E
100
AcDbEntity
  8
标注
100
AcDbDimension
  2
*D254
 10
1081.975408139432
 20
162.3158925870563
 30
0.0
 11
1081.975408139432
 21
153.3158925871002
 31
0.0
 70
    32
 71
     5
 42
17.99999999991269
  3
副本STANDARD
100
AcDbAlignedDimension
 13
1077.300281719956
 23
144.3158925871436
 33
0.0
 14
1077.300281719956
 24
162.3158925870563
 34
0.0
 50
90.0
100
AcDbRotatedDimension
  0
DIMENSION
  5
7117
330
5F6E
100
AcDbEntity
  8
标注
100
AcDbDimension
  2
*D255
 10
1062.693982507434
 20
160.9221917996663
 30
0.0
 11
1060.731848142556
 21
162.6045974052977
 31
0.0
 70
   164
  1
4-<>
 71
     5
 42
0.3937007874002347
  3
副本STANDARD
100
AcDbRadialDimension
 15
1062.355861514734
 25
161.1238710110271
 35
0.0
 40
0.0
1001
ACAD
1000
DSTYLE
1002
{
1070
   288
1070
     1
1002
}
1001
ACAD_DSTYLE_DIMRADIAL_EXTENSION
1070
   387
1070
     1
1070
   388
1040
1.570796326794896
1070
   390
1040
3.141592653589793
  0
DIMENSION
  5
7127
330
5F6E
100
AcDbEntity
  8
标注
100
AcDbDimension
  2
*D256
 10
1077.379021877446
 20
112.3113198585198
 30
0.0
 11
1069.80028172
 21
112.3113198585198
 31
0.0
 70
    32
 71
     5
 42
15.15748031489238
  3
副本STANDARD
100
AcDbAlignedDimension
 13
1062.221541562554
 23
114.7524073341908
 33
0.0
 14
1077.379021877446
 24
114.7524073341908
 34
0.0
100
AcDbRotatedDimension
  0
DIMENSION
  5
7135
330
5F6E
100
AcDbEntity
  8
标注
100
AcDbDimension
  2
*D257
 10
1080.119096881036
 20
130.4374467042205
 30
0.0
 11
1080.119096881036
 21
122.3587065467718
 31
0.0
 70
    32
 71
     5
 42
16.15748031489782
  3
副本STANDARD
100
AcDbAlignedDimension
 13
1076.906580932566
 23
114.2799663893227
 33
0.0
 14
1076.906580932566
 24
130.4374467042205
 34
0.0
 50
90.0
100
AcDbRotatedDimension
  0
DIMENSION
  5
7143
330
5F6E
100
AcDbEntity
  8
标注
100
AcDbDimension
  2
*D258
 10
1062.693982507433
 20
114.7524073341907
 30
0.0
 11
1060.868928586479
 21
113.7487305025308
 31
0.0
 70
   164
  1
4-<>
 71
     5
 42
0.472440944879736
  3
副本STANDARD
100
AcDbRadialDimension
 15
1062.35650812651
 25
114.4217844544327
 35
0.0
 40
0.0
1001
ACAD
1000
DSTYLE
1002
{
1070
   288
1070
     1
1002
}
1001
ACAD_DSTYLE_DIMRADIAL_EXTENSION
1070
   387
1070
     1
1070
   388
1040
3.141592653589793
1070
   390
1040
4.712388980384689
  0
ENDSEC
  0
SECTION
  2
OBJECTS
  0
DICTIONARY
  5
5F06
330
0
100
AcDbDictionary
281
     1
  3
ACAD_COLOR
350
5F64
  3
ACAD_GROUP
350
5F07
  3
ACAD_LAYOUT
350
5F63
  3
ACAD_MATERIAL
350
5F0A
  3
ACAD_MLEADERSTYLE
350
5F67
  3
ACAD_MLINESTYLE
350
5F60
  3
ACAD_PLOTSETTINGS
350
5F62
  3
ACAD_PLOTSTYLENAME
350
5F08
  3
ACAD_SCALELIST
350
5F34
  3
ACAD_TABLESTYLE
350
5F65
  3
ACAD_VISUALSTYLE
350
5F23
  3
ACDB_RECOMPOSE_DATA
350
7185
  3
AcDbVariableDictionary
350
6102
  3
DWGPROPS
350
7186
  3
lxx_dict
350
60F2
  0
DICTIONARY
  5
61B7
330
5EFC
100
AcDbDictionary
280
     1
281
     1
  3
ACAD_LAYERSTATES
360
61B8
  0
DICTIONARY
  5
60F4
330
5F56
100
AcDbDictionary
280
     1
281
     1
  3
ADSK_XREC_LAYER_RECONCILED
360
60F5
  0
DICTIONARY
  5
60F6
330
5F72
100
AcDbDictionary
280
     1
281
     1
  3
ADSK_XREC_LAYER_RECONCILED
360
60F7
  0
DICTIONARY
  5
60F8
330
5F7D
100
AcDbDictionary
280
     1
281
     1
  3
ADSK_XREC_LAYER_RECONCILED
360
60F9
  0
DICTIONARY
  5
60FA
330
5F7E
100
AcDbDictionary
280
     1
281
     1
  3
ADSK_XREC_LAYER_RECONCILED
360
60FB
  0
DICTIONARY
  5
60FC
330
5F80
100
AcDbDictionary
280
     1
281
     1
  3
ADSK_XREC_LAYER_RECONCILED
360
60FD
  0
DICTIONARY
  5
61B2
330
61B1
100
AcDbDictionary
280
     1
281
     1
  0
DICTIONARY
  5
6B9D
330
6B9C
100
AcDbDictionary
280
     1
281
     1
  0
DICTIONARY
  5
654F
330
5F6E
100
AcDbDictionary
280
     1
281
     1
  3
ACAD_SORTENTS
360
6550
  0
DICTIONARY
  5
5F64
102
{ACAD_REACTORS
330
5F06
102
}
330
5F06
100
AcDbDictionary
281
     1
  0
DICTIONARY
  5
5F07
102
{ACAD_REACTORS
330
5F06
102
}
330
5F06
100
AcDbDictionary
281
     1
  0
DICTIONARY
  5
5F63
102
{ACAD_REACTORS
330
5F06
102
}
330
5F06
100
AcDbDictionary
281
     1
  3
Model
350
5F71
  3
布局1
350
5F6D
  0
DICTIONARY
  5
5F0A
102
{ACAD_REACTORS
330
5F06
102
}
330
5F06
100
AcDbDictionary
281
     1
  3
ByBlock
350
5F13
  3
ByLayer
350
5F0B
  3
Global
350
5F1B
  0
DICTIONARY
  5
5F67
102
{ACAD_REACTORS
330
5F06
102
}
330
5F06
100
AcDbDictionary
281
     1
  3
Standard
350
5F68
  0
DICTIONARY
  5
5F60
102
{ACAD_REACTORS
330
5F06
102
}
330
5F06
100
AcDbDictionary
281
     1
  3
Standard
350
5F61
  0
DICTIONARY
  5
5F62
102
{ACAD_REACTORS
330
5F06
102
}
330
5F06
100
AcDbDictionary
281
     1
  0
ACDBDICTIONARYWDFLT
  5
5F08
102
{ACAD_REACTORS
330
5F06
102
}
330
5F06
100
AcDbDictionary
281
     1
  3
Normal
350
5F09
100
AcDbDictionaryWithDefault
340
5F09
  0
DICTIONARY
  5
5F34
102
{ACAD_REACTORS
330
5F06
102
}
330
5F06
100
AcDbDictionary
281
     1
  3
A0
350
5F35
  3
A1
350
5F36
  3
A2
350
5F37
  3
A3
350
5F38
  3
A4
350
5F39
  3
A5
350
5F3A
  3
A6
350
5F3B
  3
A7
350
5F3C
  3
A8
350
5F3D
  3
A9
350
5F3E
  3
B0
350
5F3F
  3
B1
350
5F40
  3
B2
350
5F41
  3
B3
350
5F42
  3
B4
350
5F43
  3
B5
350
5F44
  3
B6
350
5F45
  3
B7
350
5F46
  3
B8
350
5F47
  3
B9
350
5F48
  3
C0
350
5F49
  3
C1
350
5F4A
  3
C2
350
5F4B
  3
C3
350
5F4C
  3
C4
350
5F4D
  3
C5
350
5F4E
  3
C6
350
5F4F
  3
C7
350
5F50
  3
C8
350
5F51
  3
C9
350
5F52
  3
D0
350
5F53
  3
D1
350
5F54
  3
D2
350
5F55
  0
DICTIONARY
  5
5F65
102
{ACAD_REACTORS
330
5F06
102
}
330
5F06
100
AcDbDictionary
281
     1
  3
Standard
350
5F66
  0
DICTIONARY
  5
5F23
102
{ACAD_REACTORS
330
5F06
102
}
330
5F06
100
AcDbDictionary
281
     1
  3
2dWireframe
350
5F29
  3
3D Hidden
350
5F2B
  3
3dWireframe
350
5F2A
  3
Basic
350
5F28
  3
Brighten
350
5F2F
  3
ColorChange
350
5F33
  3
Conceptual
350
5F2C
  3
Dim
350
5F2E
  3
Facepattern
350
5F32
  3
Flat
350
5F24
  3
FlatWithEdges
350
5F25
  3
Gouraud
350
5F26
  3
GouraudWithEdges
350
5F27
  3
Linepattern
350
5F31
  3
Realistic
350
5F2D
  3
Thicken
350
5F30
  0
XRECORD
  5
7185
102
{ACAD_REACTORS
330
5F06
102
}
330
5F06
100
AcDbXrecord
280
     1
 90
        1
330
5F66
  0
DICTIONARY
  5
6102
102
{ACAD_REACTORS
330
5F06
102
}
330
5F06
100
AcDbDictionary
281
     1
  3
CANNOSCALE
350
6105
  3
CMLEADERSTYLE
350
6104
  3
CTABLESTYLE
350
6103
  3
DIMASSOC
350
6108
  3
INDEXCTL
350
6107
  3
SORTENTS
350
6106
  0
XRECORD
  5
7186
102
{ACAD_REACTORS
330
5F06
102
}
330
5F06
100
AcDbXrecord
280
     1
  1
DWGPROPS COOKIE
  2

  3

  4

  6

  7

  8
Administrator
  9

300
=
301
=
302
=
303
=
304
=
305
=
306
=
307
=
308
=
309
=
 40
0.5509973842592593
 41
2455434.724808658
 42
2458562.565176563
  1

 90
        0
  0
DICTIONARY
  5
60F2
102
{ACAD_REACTORS
330
5F06
102
}
330
5F06
100
AcDbDictionary
281
     1
  3
lxx_dimth
350
60F3
  0
DICTIONARY
  5
61B8
102
{ACAD_REACTORS
330
61B7
102
}
330
61B7
100
AcDbDictionary
281
     1
  0
XRECORD
  5
60F5
102
{ACAD_REACTORS
330
60F4
102
}
330
60F4
100
AcDbXrecord
280
     1
290
     1
  0
XRECORD
  5
60F7
102
{ACAD_REACTORS
330
60F6
102
}
330
60F6
100
AcDbXrecord
280
     1
290
     1
  0
XRECORD
  5
60F9
102
{ACAD_REACTORS
330
60F8
102
}
330
60F8
100
AcDbXrecord
280
     1
290
     1
  0
XRECORD
  5
60FB
102
{ACAD_REACTORS
330
60FA
102
}
330
60FA
100
AcDbXrecord
280
     1
290
     1
  0
XRECORD
  5
60FD
102
{ACAD_REACTORS
330
60FC
102
}
330
60FC
100
AcDbXrecord
280
     1
290
     1
  0
SORTENTSTABLE
  5
6550
102
{ACAD_REACTORS
330
654F
102
}
330
654F
100
AcDbSortentsTable
330
5F6E
  0
LAYOUT
  5
5F71
102
{ACAD_XDICTIONARY
360
718D
102
}
102
{ACAD_REACTORS
330
5F63
102
}
330
5F63
100
AcDbPlotSettings
  1

  2
\\192.168.1.64\Canon LBP2900
  4

  6

 40
0.0
 41
0.0
 42
0.0
 43
0.0
 44
0.0
 45
0.0
 46
0.0
 47
0.0
 48
0.0
 49
0.0
140
0.0
141
0.0
142
1.0
143
1.0
 70
  1712
 72
     0
 73
     0
 74
     0
  7

 75
     0
147
1.0
148
0.0
149
0.0
100
AcDbLayout
  1
Model
 70
     1
 71
     0
 10
0.0
 20
0.0
 11
12.0
 21
9.0
 12
0.0
 22
0.0
 32
0.0
 14
0.0
 24
0.0
 34
0.0
 15
0.0
 25
0.0
 35
0.0
146
0.0
 13
0.0
 23
0.0
 33
0.0
 16
1.0
 26
0.0
 36
0.0
 17
0.0
 27
1.0
 37
0.0
 76
     0
330
5F6E
331
5F73
  0
LAYOUT
  5
5F6D
102
{ACAD_XDICTIONARY
360
718B
102
}
102
{ACAD_REACTORS
330
5F63
102
}
330
5F63
100
AcDbPlotSettings
  1

  2
\\192.168.1.64\Canon LBP2900
  4

  6

 40
0.0
 41
0.0
 42
0.0
 43
0.0
 44
0.0
 45
0.0
 46
0.0
 47
0.0
 48
0.0
 49
0.0
140
0.0
141
0.0
142
1.0
143
1.0
 70
   688
 72
     0
 73
     0
 74
     5
  7

 75
    16
147
1.0
148
0.0
149
0.0
100
AcDbLayout
  1
布局1
 70
     1
 71
     1
 10
0.0
 20
0.0
 11
12.0
 21
9.0
 12
0.0
 22
0.0
 32
0.0
 14
1.000000000000000E+20
 24
1.000000000000000E+20
 34
1.000000000000000E+20
 15
-1.000000000000000E+20
 25
-1.000000000000000E+20
 35
-1.000000000000000E+20
146
0.0
 13
0.0
 23
0.0
 33
0.0
 16
1.0
 26
0.0
 36
0.0
 17
0.0
 27
1.0
 37
0.0
 76
     0
330
5F6A
  0
MATERIAL
  5
5F13
102
{ACAD_XDICTIONARY
360
5F14
102
}
102
{ACAD_REACTORS
330
5F0A
102
}
330
5F0A
100
AcDbMaterial
  1
ByBlock
 72
     0
 43
0.0208333333333333
 43
0.0
 43
0.0
 43
0.0
 43
0.0
 43
0.0208333333333333
 43
0.0
 43
0.0
 43
0.0
 43
0.0
 43
1.0
 43
0.0
 43
0.0
 43
0.0
 43
0.0
 43
1.0
 77
     0
 47
0.0208333333333333
 47
0.0
 47
0.0
 47
0.0
 47
0.0
 47
0.0208333333333333
 47
0.0
 47
0.0
 47
0.0
 47
0.0
 47
1.0
 47
0.0
 47
0.0
 47
0.0
 47
0.0
 47
1.0
171
     0
 49
0.0208333333333333
 49
0.0
 49
0.0
 49
0.0
 49
0.0
 49
0.0208333333333333
 49
0.0
 49
0.0
 49
0.0
 49
0.0
 49
1.0
 49
0.0
 49
0.0
 49
0.0
 49
0.0
 49
1.0
175
     0
142
0.0208333333333333
142
0.0
142
0.0
142
0.0
142
0.0
142
0.0208333333333333
142
0.0
142
0.0
142
0.0
142
0.0
142
1.0
142
0.0
142
0.0
142
0.0
142
0.0
142
1.0
179
     0
144
0.0208333333333333
144
0.0
144
0.0
144
0.0
144
0.0
144
0.0208333333333333
144
0.0
144
0.0
144
0.0
144
0.0
144
1.0
144
0.0
144
0.0
144
0.0
144
0.0
144
1.0
147
0.0208333333333333
147
0.0
147
0.0
147
0.0
147
0.0
147
0.0208333333333333
147
0.0
147
0.0
147
0.0
147
0.0
147
1.0
147
0.0
147
0.0
147
0.0
147
0.0
147
1.0
  0
MATERIAL
  5
5F0B
102
{ACAD_XDICTIONARY
360
5F0C
102
}
102
{ACAD_REACTORS
330
5F0A
102
}
330
5F0A
100
AcDbMaterial
  1
ByLayer
 72
     0
 43
0.0208333333333333
 43
0.0
 43
0.0
 43
0.0
 43
0.0
 43
0.0208333333333333
 43
0.0
 43
0.0
 43
0.0
 43
0.0
 43
1.0
 43
0.0
 43
0.0
 43
0.0
 43
0.0
 43
1.0
 77
     0
 47
0.0208333333333333
 47
0.0
 47
0.0
 47
0.0
 47
0.0
 47
0.0208333333333333
 47
0.0
 47
0.0
 47
0.0
 47
0.0
 47
1.0
 47
0.0
 47
0.0
 47
0.0
 47
0.0
 47
1.0
171
     0
 49
0.0208333333333333
 49
0.0
 49
0.0
 49
0.0
 49
0.0
 49
0.0208333333333333
 49
0.0
 49
0.0
 49
0.0
 49
0.0
 49
1.0
 49
0.0
 49
0.0
 49
0.0
 49
0.0
 49
1.0
175
     0
142
0.0208333333333333
142
0.0
142
0.0
142
0.0
142
0.0
142
0.0208333333333333
142
0.0
142
0.0
142
0.0
142
0.0
142
1.0
142
0.0
142
0.0
142
0.0
142
0.0
142
1.0
179
     0
144
0.0208333333333333
144
0.0
144
0.0
144
0.0
144
0.0
144
0.0208333333333333
144
0.0
144
0.0
144
0.0
144
0.0
144
1.0
144
0.0
144
0.0
144
0.0
144
0.0
144
1.0
147
0.0208333333333333
147
0.0
147
0.0
147
0.0
147
0.0
147
0.0208333333333333
147
0.0
147
0.0
147
0.0
147
0.0
147
1.0
147
0.0
147
0.0
147
0.0
147
0.0
147
1.0
  0
MATERIAL
  5
5F1B
102
{ACAD_XDICTIONARY
360
5F1C
102
}
102
{ACAD_REACTORS
330
5F0A
102
}
330
5F0A
100
AcDbMaterial
  1
Global
 72
     0
 43
0.0208333333333333
 43
0.0
 43
0.0
 43
0.0
 43
0.0
 43
0.0208333333333333
 43
0.0
 43
0.0
 43
0.0
 43
0.0
 43
1.0
 43
0.0
 43
0.0
 43
0.0
 43
0.0
 43
1.0
 77
     0
 47
0.0208333333333333
 47
0.0
 47
0.0
 47
0.0
 47
0.0
 47
0.0208333333333333
 47
0.0
 47
0.0
 47
0.0
 47
0.0
 47
1.0
 47
0.0
 47
0.0
 47
0.0
 47
0.0
 47
1.0
171
     0
 49
0.0208333333333333
 49
0.0
 49
0.0
 49
0.0
 49
0.0
 49
0.0208333333333333
 49
0.0
 49
0.0
 49
0.0
 49
0.0
 49
1.0
 49
0.0
 49
0.0
 49
0.0
 49
0.0
 49
1.0
175
     0
142
0.0208333333333333
142
0.0
142
0.0
142
0.0
142
0.0
142
0.0208333333333333
142
0.0
142
0.0
142
0.0
142
0.0
142
1.0
142
0.0
142
0.0
142
0.0
142
0.0
142
1.0
179
     0
144
0.0208333333333333
144
0.0
144
0.0
144
0.0
144
0.0
144
0.0208333333333333
144
0.0
144
0.0
144
0.0
144
0.0
144
1.0
144
0.0
144
0.0
144
0.0
144
0.0
144
1.0
147
0.0208333333333333
147
0.0
147
0.0
147
0.0
147
0.0
147
0.0208333333333333
147
0.0
147
0.0
147
0.0
147
0.0
147
1.0
147
0.0
147
0.0
147
0.0
147
0.0
147
1.0
  0
MLEADERSTYLE
  5
5F68
102
{ACAD_REACTORS
330
5F67
102
}
330
5F67
100
AcDbMLeaderStyle
170
     2
171
     1
172
     0
 90
        2
 40
0.0
 41
0.0
173
     1
 91
-1056964608
340
5F5C
 92
       -2
290
     1
 42
0.09
291
     1
 43
0.36
  3
Standard
 44
0.18
300

342
5F57
174
     1
178
     6
175
     1
176
     0
 93
-1056964608
 45
0.18
292
     0
297
     0
 46
0.18
 94
-1056964608
 47
1.0
 49
1.0
140
1.0
293
     1
141
0.0
294
     1
177
     0
142
1.0
295
     0
296
     0
143
0.125
1001
ACAD_MLEADERVER
1070
     2
  0
MLINESTYLE
  5
5F61
102
{ACAD_REACTORS
330
5F60
102
}
330
5F60
100
AcDbMlineStyle
  2
STANDARD
 70
     0
  3

 62
   256
 51
90.0
 52
90.0
 71
     2
 49
0.5
 62
   256
  6
BYLAYER
 49
-0.5
 62
   256
  6
BYLAYER
  0
ACDBPLACEHOLDER
  5
5F09
102
{ACAD_REACTORS
330
5F08
102
}
330
5F08
  0
SCALE
  5
5F35
102
{ACAD_REACTORS
330
5F34
102
}
330
5F34
100
AcDbScale
 70
     0
300
1:1
140
1.0
141
1.0
290
     1
  0
SCALE
  5
5F36
102
{ACAD_REACTORS
330
5F34
102
}
330
5F34
100
AcDbScale
 70
     0
300
1:2
140
1.0
141
2.0
290
     0
  0
SCALE
  5
5F37
102
{ACAD_REACTORS
330
5F34
102
}
330
5F34
100
AcDbScale
 70
     0
300
1:4
140
1.0
141
4.0
290
     0
  0
SCALE
  5
5F38
102
{ACAD_REACTORS
330
5F34
102
}
330
5F34
100
AcDbScale
 70
     0
300
1:5
140
1.0
141
5.0
290
     0
  0
SCALE
  5
5F39
102
{ACAD_REACTORS
330
5F34
102
}
330
5F34
100
AcDbScale
 70
     0
300
1:8
140
1.0
141
8.0
290
     0
  0
SCALE
  5
5F3A
102
{ACAD_REACTORS
330
5F34
102
}
330
5F34
100
AcDbScale
 70
     0
300
1:10
140
1.0
141
10.0
290
     0
  0
SCALE
  5
5F3B
102
{ACAD_REACTORS
330
5F34
102
}
330
5F34
100
AcDbScale
 70
     0
300
1:16
140
1.0
141
16.0
290
     0
  0
SCALE
  5
5F3C
102
{ACAD_REACTORS
330
5F34
102
}
330
5F34
100
AcDbScale
 70
     0
300
1:20
140
1.0
141
20.0
290
     0
  0
SCALE
  5
5F3D
102
{ACAD_REACTORS
330
5F34
102
}
330
5F34
100
AcDbScale
 70
     0
300
1:30
140
1.0
141
30.0
290
     0
  0
SCALE
  5
5F3E
102
{ACAD_REACTORS
330
5F34
102
}
330
5F34
100
AcDbScale
 70
     0
300
1:40
140
1.0
141
40.0
290
     0
  0
SCALE
  5
5F3F
102
{ACAD_REACTORS
330
5F34
102
}
330
5F34
100
AcDbScale
 70
     0
300
1:50
140
1.0
141
50.0
290
     0
  0
SCALE
  5
5F40
102
{ACAD_REACTORS
330
5F34
102
}
330
5F34
100
AcDbScale
 70
     0
300
1:100
140
1.0
141
100.0
290
     0
  0
SCALE
  5
5F41
102
{ACAD_REACTORS
330
5F34
102
}
330
5F34
100
AcDbScale
 70
     0
300
2:1
140
2.0
141
1.0
290
     0
  0
SCALE
  5
5F42
102
{ACAD_REACTORS
330
5F34
102
}
330
5F34
100
AcDbScale
 70
     0
300
4:1
140
4.0
141
1.0
290
     0
  0
SCALE
  5
5F43
102
{ACAD_REACTORS
330
5F34
102
}
330
5F34
100
AcDbScale
 70
     0
300
8:1
140
8.0
141
1.0
290
     0
  0
SCALE
  5
5F44
102
{ACAD_REACTORS
330
5F34
102
}
330
5F34
100
AcDbScale
 70
     0
300
10:1
140
10.0
141
1.0
290
     0
  0
SCALE
  5
5F45
102
{ACAD_REACTORS
330
5F34
102
}
330
5F34
100
AcDbScale
 70
     0
300
100:1
140
100.0
141
1.0
290
     0
  0
SCALE
  5
5F46
102
{ACAD_REACTORS
330
5F34
102
}
330
5F34
100
AcDbScale
 70
     0
300
1/128" = 1'-0"
140
0.0078125
141
12.0
290
     0
  0
SCALE
  5
5F47
102
{ACAD_REACTORS
330
5F34
102
}
330
5F34
100
AcDbScale
 70
     0
300
1/64" = 1'-0"
140
0.015625
141
12.0
290
     0
  0
SCALE
  5
5F48
102
{ACAD_REACTORS
330
5F34
102
}
330
5F34
100
AcDbScale
 70
     0
300
1/32" = 1'-0"
140
0.03125
141
12.0
290
     0
  0
SCALE
  5
5F49
102
{ACAD_REACTORS
330
5F34
102
}
330
5F34
100
AcDbScale
 70
     0
300
1/16" = 1'-0"
140
0.0625
141
12.0
290
     0
  0
SCALE
  5
5F4A
102
{ACAD_REACTORS
330
5F34
102
}
330
5F34
100
AcDbScale
 70
     0
300
3/32" = 1'-0"
140
0.09375
141
12.0
290
     0
  0
SCALE
  5
5F4B
102
{ACAD_REACTORS
330
5F34
102
}
330
5F34
100
AcDbScale
 70
     0
300
1/8" = 1'-0"
140
0.125
141
12.0
290
     0
  0
SCALE
  5
5F4C
102
{ACAD_REACTORS
330
5F34
102
}
330
5F34
100
AcDbScale
 70
     0
300
3/16" = 1'-0"
140
0.1875
141
12.0
290
     0
  0
SCALE
  5
5F4D
102
{ACAD_REACTORS
330
5F34
102
}
330
5F34
100
AcDbScale
 70
     0
300
1/4" = 1'-0"
140
0.25
141
12.0
290
     0
  0
SCALE
  5
5F4E
102
{ACAD_REACTORS
330
5F34
102
}
330
5F34
100
AcDbScale
 70
     0
300
3/8" = 1'-0"
140
0.375
141
12.0
290
     0
  0
SCALE
  5
5F4F
102
{ACAD_REACTORS
330
5F34
102
}
330
5F34
100
AcDbScale
 70
     0
300
1/2" = 1'-0"
140
0.5
141
12.0
290
     0
  0
SCALE
  5
5F50
102
{ACAD_REACTORS
330
5F34
102
}
330
5F34
100
AcDbScale
 70
     0
300
3/4" = 1'-0"
140
0.75
141
12.0
290
     0
  0
SCALE
  5
5F51
102
{ACAD_REACTORS
330
5F34
102
}
330
5F34
100
AcDbScale
 70
     0
300
1" = 1'-0"
140
1.0
141
12.0
290
     0
  0
SCALE
  5
5F52
102
{ACAD_REACTORS
330
5F34
102
}
330
5F34
100
AcDbScale
 70
     0
300
1-1/2" = 1'-0"
140
1.5
141
12.0
290
     0
  0
SCALE
  5
5F53
102
{ACAD_REACTORS
330
5F34
102
}
330
5F34
100
AcDbScale
 70
     0
300
3" = 1'-0"
140
3.0
141
12.0
290
     0
  0
SCALE
  5
5F54
102
{ACAD_REACTORS
330
5F34
102
}
330
5F34
100
AcDbScale
 70
     0
300
6" = 1'-0"
140
6.0
141
12.0
290
     0
  0
SCALE
  5
5F55
102
{ACAD_REACTORS
330
5F34
102
}
330
5F34
100
AcDbScale
 70
     0
300
1'-0" = 1'-0"
140
12.0
141
12.0
290
     0
  0
TABLESTYLE
  5
5F66
102
{ACAD_XDICTIONARY
360
7183
102
}
102
{ACAD_REACTORS
330
5F65
102
}
330
5F65
100
AcDbTableStyle
  3
Standard
 70
     0
 71
     0
 40
0.06
 41
0.06
280
     0
281
     0
  7
STANDARD
140
0.18
170
     2
 62
     0
 63
     7
283
     0
274
    -2
284
     1
 64
     0
275
    -2
285
     1
 65
     0
276
    -2
286
     1
 66
     0
277
    -2
287
     1
 67
     0
278
    -2
288
     1
 68
     0
279
    -2
289
     1
 69
     0
  7
STANDARD
140
0.25
170
     5
 62
     0
 63
     7
283
     0
274
    -2
284
     1
 64
     0
275
    -2
285
     1
 65
     0
276
    -2
286
     1
 66
     0
277
    -2
287
     1
 67
     0
278
    -2
288
     1
 68
     0
279
    -2
289
     1
 69
     0
  7
STANDARD
140
0.18
170
     5
 62
     0
 63
     7
283
     0
274
    -2
284
     1
 64
     0
275
    -2
285
     1
 65
     0
276
    -2
286
     1
 66
     0
277
    -2
287
     1
 67
     0
278
    -2
288
     1
 68
     0
279
    -2
289
     1
 69
     0
  0
VISUALSTYLE
  5
5F29
102
{ACAD_REACTORS
330
5F23
102
}
330
5F23
100
AcDbVisualStyle
  2
2dWireframe
 70
     4
 71
     0
 72
     2
 73
     0
 90
        0
 40
-0.6
 41
-30.0
 62
     5
 63
     7
 74
     1
 91
        4
 64
     7
 65
   257
 75
     1
175
     1
 42
1.0
 92
        0
 66
   257
 43
1.0
 76
     1
 77
     6
 78
     2
 67
     7
 79
     5
170
     0
171
     0
290
     0
174
     0
 93
        1
 44
0.0
173
     0
291
     0
 45
0.0
1001
ACAD
1000
AcDbSavedByObjectVersion
1070
     0
  0
VISUALSTYLE
  5
5F2B
102
{ACAD_REACTORS
330
5F23
102
}
330
5F23
100
AcDbVisualStyle
  2
3D Hidden
 70
     6
 71
     1
 72
     2
 73
     2
 90
        0
 40
-0.6
 41
-30.0
 62
     5
 63
     7
 74
     2
 91
        2
 64
     7
 65
   257
 75
     2
175
     1
 42
40.0
 92
        0
 66
   257
 43
1.0
 76
     1
 77
     6
 78
     2
 67
     7
 79
     3
170
     0
171
     0
290
     0
174
     0
 93
        1
 44
0.0
173
     0
291
     0
 45
0.0
1001
ACAD
1000
AcDbSavedByObjectVersion
1070
     0
  0
VISUALSTYLE
  5
5F2A
102
{ACAD_REACTORS
330
5F23
102
}
330
5F23
100
AcDbVisualStyle
  2
3dWireframe
 70
     5
 71
     0
 72
     2
 73
     0
 90
        0
 40
-0.6
 41
-30.0
 62
     5
 63
     7
 74
     1
 91
        4
 64
     7
 65
   257
 75
     1
175
     1
 42
1.0
 92
        0
 66
   257
 43
1.0
 76
     1
 77
     6
 78
     2
 67
     7
 79
     5
170
     0
171
     0
290
     0
174
     0
 93
        1
 44
0.0
173
     0
291
     0
 45
0.0
1001
ACAD
1000
AcDbSavedByObjectVersion
1070
     0
  0
VISUALSTYLE
  5
5F28
102
{ACAD_REACTORS
330
5F23
102
}
330
5F23
100
AcDbVisualStyle
  2
Basic
 70
     7
 71
     1
 72
     0
 73
     1
 90
        0
 40
-0.6
 41
-30.0
 62
     5
 63
     7
 74
     0
 91
        4
 64
     7
 65
   257
 75
     1
175
     1
 42
1.0
 92
        8
 66
     7
 43
1.0
 76
     1
 77
     6
 78
     2
 67
     7
 79
     5
170
     0
171
     0
290
     0
174
     0
 93
        1
 44
0.0
173
     0
291
     1
 45
0.0
1001
ACAD
1000
AcDbSavedByObjectVersion
1070
     0
  0
VISUALSTYLE
  5
5F2F
102
{ACAD_REACTORS
330
5F23
102
}
330
5F23
100
AcDbVisualStyle
  2
Brighten
 70
    12
 71
     2
 72
     2
 73
     0
 90
        0
 40
-0.6
 41
-30.0
 62
     5
 63
     7
 74
     1
 91
        4
 64
     7
 65
   257
 75
     1
175
     1
 42
1.0
 92
        8
 66
     7
 43
1.0
 76
     1
 77
     6
 78
     2
 67
     7
 79
     5
170
     0
171
     0
290
     0
174
     0
 93
        1
 44
50.0
173
     0
291
     1
 45
0.0
1001
ACAD
1000
AcDbSavedByObjectVersion
1070
     0
  0
VISUALSTYLE
  5
5F33
102
{ACAD_REACTORS
330
5F23
102
}
330
5F23
100
AcDbVisualStyle
  2
ColorChange
 70
    16
 71
     2
 72
     2
 73
     3
 90
        0
 40
-0.6
 41
-30.0
 62
     5
 63
     8
 74
     1
 91
        4
 64
     7
 65
   257
 75
     1
175
     1
 42
1.0
 92
        8
 66
     8
 43
1.0
 76
     1
 77
     6
 78
     2
 67
     7
 79
     5
170
     0
171
     0
290
     0
174
     0
 93
        1
 44
0.0
173
     0
291
     1
 45
0.0
1001
ACAD
1000
AcDbSavedByObjectVersion
1070
     0
  0
VISUALSTYLE
  5
5F2C
102
{ACAD_REACTORS
330
5F23
102
}
330
5F23
100
AcDbVisualStyle
  2
Conceptual
 70
     9
 71
     3
 72
     2
 73
     0
 90
        0
 40
-0.6
 41
-30.0
 62
     5
 63
     7
 74
     2
 91
        2
 64
     7
 65
   257
 75
     1
175
     1
 42
40.0
 92
        8
 66
     7
 43
1.0
 76
     1
 77
     6
 78
     2
 67
     7
 79
     3
170
     0
171
     0
290
     0
174
     0
 93
        1
 44
0.0
173
     0
291
     0
 45
0.0
1001
ACAD
1000
AcDbSavedByObjectVersion
1070
     0
  0
VISUALSTYLE
  5
5F2E
102
{ACAD_REACTORS
330
5F23
102
}
330
5F23
100
AcDbVisualStyle
  2
Dim
 70
    11
 71
     2
 72
     2
 73
     0
 90
        0
 40
-0.6
 41
-30.0
 62
     5
 63
     7
 74
     1
 91
        4
 64
     7
 65
   257
 75
     1
175
     1
 42
1.0
 92
        8
 66
     7
 43
1.0
 76
     1
 77
     6
 78
     2
 67
     7
 79
     5
170
     0
171
     0
290
     0
174
     0
 93
        1
 44
-50.0
173
     0
291
     1
 45
0.0
1001
ACAD
1000
AcDbSavedByObjectVersion
1070
     0
  0
VISUALSTYLE
  5
5F32
102
{ACAD_REACTORS
330
5F23
102
}
330
5F23
100
AcDbVisualStyle
  2
Facepattern
 70
    15
 71
     2
 72
     2
 73
     0
 90
        0
 40
-0.6
 41
-30.0
 62
     5
 63
     7
 74
     1
 91
        4
 64
     7
 65
   257
 75
     1
175
     1
 42
1.0
 92
        8
 66
     7
 43
1.0
 76
     1
 77
     6
 78
     2
 67
     7
 79
     5
170
     0
171
     0
290
     0
174
     0
 93
        1
 44
0.0
173
     0
291
     1
 45
0.0
1001
ACAD
1000
AcDbSavedByObjectVersion
1070
     0
  0
VISUALSTYLE
  5
5F24
102
{ACAD_REACTORS
330
5F23
102
}
330
5F23
100
AcDbVisualStyle
  2
Flat
 70
     0
 71
     2
 72
     1
 73
     1
 90
        2
 40
-0.6
 41
30.0
 62
     5
 63
     7
 74
     0
 91
        4
 64
     7
 65
   257
 75
     1
175
     1
 42
1.0
 92
        8
 66
     7
 43
1.0
 76
     1
 77
     6
 78
     2
 67
     7
 79
     5
170
     0
171
     0
290
     0
174
     0
 93
       13
 44
0.0
173
     0
291
     1
 45
0.0
1001
ACAD
1000
AcDbSavedByObjectVersion
1070
     0
  0
VISUALSTYLE
  5
5F25
102
{ACAD_REACTORS
330
5F23
102
}
330
5F23
100
AcDbVisualStyle
  2
FlatWithEdges
 70
     1
 71
     2
 72
     1
 73
     1
 90
        2
 40
-0.6
 41
30.0
 62
     5
 63
     7
 74
     1
 91
        4
 64
     7
 65
   257
 75
     1
175
     1
 42
1.0
 92
        0
 66
   257
 43
1.0
 76
     1
 77
     6
 78
     2
 67
     7
 79
     5
170
     0
171
     0
290
     0
174
     0
 93
       13
 44
0.0
173
     0
291
     1
 45
0.0
1001
ACAD
1000
AcDbSavedByObjectVersion
1070
     0
  0
VISUALSTYLE
  5
5F26
102
{ACAD_REACTORS
330
5F23
102
}
330
5F23
100
AcDbVisualStyle
  2
Gouraud
 70
     2
 71
     2
 72
     2
 73
     1
 90
        2
 40
-0.6
 41
30.0
 62
     5
 63
     7
 74
     0
 91
        4
 64
     7
 65
   257
 75
     1
175
     1
 42
1.0
 92
        0
 66
     7
 43
1.0
 76
     1
 77
     6
 78
     2
 67
     7
 79
     5
170
     0
171
     0
290
     0
174
     0
 93
       13
 44
0.0
173
     0
291
     1
 45
0.0
1001
ACAD
1000
AcDbSavedByObjectVersion
1070
     0
  0
VISUALSTYLE
  5
5F27
102
{ACAD_REACTORS
330
5F23
102
}
330
5F23
100
AcDbVisualStyle
  2
GouraudWithEdges
 70
     3
 71
     2
 72
     2
 73
     1
 90
        2
 40
-0.6
 41
30.0
 62
     5
 63
     7
 74
     1
 91
        4
 64
     7
 65
   257
 75
     1
175
     1
 42
1.0
 92
        0
 66
   257
 43
1.0
 76
     1
 77
     6
 78
     2
 67
     7
 79
     5
170
     0
171
     0
290
     0
174
     0
 93
       13
 44
0.0
173
     0
291
     1
 45
0.0
1001
ACAD
1000
AcDbSavedByObjectVersion
1070
     0
  0
VISUALSTYLE
  5
5F31
102
{ACAD_REACTORS
330
5F23
102
}
330
5F23
100
AcDbVisualStyle
  2
Linepattern
 70
    14
 71
     2
 72
     2
 73
     0
 90
        0
 40
-0.6
 41
-30.0
 62
     5
 63
     7
 74
     1
 91
        4
 64
     7
 65
   257
 75
     7
175
     7
 42
1.0
 92
        8
 66
     7
 43
1.0
 76
     1
 77
     6
 78
     2
 67
     7
 79
     5
170
     0
171
     0
290
     0
174
     0
 93
        1
 44
0.0
173
     0
291
     1
 45
0.0
1001
ACAD
1000
AcDbSavedByObjectVersion
1070
     0
  0
VISUALSTYLE
  5
5F2D
102
{ACAD_REACTORS
330
5F23
102
}
330
5F23
100
AcDbVisualStyle
  2
Realistic
 70
     8
 71
     2
 72
     2
 73
     0
 90
        0
 40
-0.6
 41
-30.0
 62
     5
 63
     7
 74
     1
 91
        0
 64
     7
 65
   257
 75
     1
175
     1
 42
1.0
 92
        8
 66
     8
 43
1.0
 76
     1
 77
     6
 78
     2
 67
     7
 79
     5
170
     0
171
     0
290
     0
174
     0
 93
       13
 44
0.0
173
     0
291
     0
 45
0.0
1001
ACAD
1000
AcDbSavedByObjectVersion
1070
     0
  0
VISUALSTYLE
  5
5F30
102
{ACAD_REACTORS
330
5F23
102
}
330
5F23
100
AcDbVisualStyle
  2
Thicken
 70
    13
 71
     2
 72
     2
 73
     0
 90
        0
 40
-0.6
 41
-30.0
 62
     5
 63
     7
 74
     1
 91
        4
 64
     7
 65
   257
 75
     1
175
     1
 42
1.0
 92
       12
 66
     7
 43
1.0
 76
     1
 77
     6
 78
     2
 67
     7
 79
     5
170
     0
171
     0
290
     0
174
     0
 93
        1
 44
0.0
173
     0
291
     1
 45
0.0
1001
ACAD
1000
AcDbSavedByObjectVersion
1070
     0
  0
DICTIONARYVAR
  5
6105
102
{ACAD_REACTORS
330
6102
102
}
330
6102
100
DictionaryVariables
280
     0
  1
1:1
  0
DICTIONARYVAR
  5
6104
102
{ACAD_REACTORS
330
6102
102
}
330
6102
100
DictionaryVariables
280
     0
  1
STANDARD
  0
DICTIONARYVAR
  5
6103
102
{ACAD_REACTORS
330
6102
102
}
330
6102
100
DictionaryVariables
280
     0
  1
STANDARD
  0
DICTIONARYVAR
  5
6108
102
{ACAD_REACTORS
330
6102
102
}
330
6102
100
DictionaryVariables
280
     0
  1
1
  0
DICTIONARYVAR
  5
6107
102
{ACAD_REACTORS
330
6102
102
}
330
6102
100
DictionaryVariables
280
     0
  1
0
  0
DICTIONARYVAR
  5
6106
102
{ACAD_REACTORS
330
6102
102
}
330
6102
100
DictionaryVariables
280
     0
  1
127
  0
VLO-VL
  5
60F3
102
{ACAD_REACTORS
330
60F2
102
}
330
60F2
100
vlo_VL
 90
   -64512
 91
       12
 92
        1
 40
2.5
300
(&VLO-R . 0)
  0
DICTIONARY
  5
718D
330
5F71
100
AcDbDictionary
280
     1
281
     1
  3
ACAD_XREC_ROUNDTRIP
360
718E
  0
DICTIONARY
  5
718B
330
5F6D
100
AcDbDictionary
280
     1
281
     1
  3
ACAD_XREC_ROUNDTRIP
360
718C
  0
DICTIONARY
  5
5F14
330
5F13
100
AcDbDictionary
280
     1
281
     1
  3
ACAD_XREC_ROUNDTRIP
360
7188
  3
BUMPTILE
360
5F16
  3
DIFFUSETILE
360
5F15
  3
OPACITYTILE
360
5F19
  3
REFLECTIONTILE
360
5F18
  3
REFRACTIONTILE
360
5F1A
  3
SPECULARTILE
360
5F17
  0
DICTIONARY
  5
5F0C
330
5F0B
100
AcDbDictionary
280
     1
281
     1
  3
ACAD_XREC_ROUNDTRIP
360
7187
  3
BUMPTILE
360
5F0E
  3
DIFFUSETILE
360
5F0D
  3
OPACITYTILE
360
5F11
  3
REFLECTIONTILE
360
5F10
  3
REFRACTIONTILE
360
5F12
  3
SPECULARTILE
360
5F0F
  0
DICTIONARY
  5
5F1C
330
5F1B
100
AcDbDictionary
280
     1
281
     1
  3
ACAD_XREC_ROUNDTRIP
360
7189
  3
BUMPTILE
360
5F1E
  3
DIFFUSETILE
360
5F1D
  3
OPACITYTILE
360
5F21
  3
REFLECTIONTILE
360
5F20
  3
REFRACTIONTILE
360
5F22
  3
SPECULARTILE
360
5F1F
  0
DICTIONARY
  5
7183
330
5F66
100
AcDbDictionary
280
     1
281
     1
  3
ACAD_ROUNDTRIP_2008_TABLESTYLE_CELLSTYLEMAP
360
7184
  3
ACAD_XREC_ROUNDTRIP
360
718A
  0
XRECORD
  5
718E
102
{ACAD_REACTORS
330
718D
102
}
330
718D
100
AcDbXrecord
280
     1
102
SHADEPLOT
 70
     0
102
SHADEPLOTRESLEVEL
 70
     2
102
SHADEPLOTCUSTOMDPI
 70
   300
  0
XRECORD
  5
718C
102
{ACAD_REACTORS
330
718B
102
}
330
718B
100
AcDbXrecord
280
     1
102
SHADEPLOT
 70
     0
102
SHADEPLOTRESLEVEL
 70
     2
102
SHADEPLOTCUSTOMDPI
 70
   300
  0
XRECORD
  5
7188
102
{ACAD_REACTORS
330
5F14
102
}
330
5F14
100
AcDbXrecord
280
     1
102
MATERIAL
148
0.0
149
0.0
149
0.0
 93
        0
 94
      127
282
     0
 72
     0
 77
     0
171
     0
175
     0
179
     0
273
     0
  0
XRECORD
  5
5F16
102
{ACAD_REACTORS
330
5F14
102
}
330
5F14
100
AcDbXrecord
280
     1
270
     1
271
     1
  0
XRECORD
  5
5F15
102
{ACAD_REACTORS
330
5F14
102
}
330
5F14
100
AcDbXrecord
280
     1
270
     1
271
     1
  0
XRECORD
  5
5F19
102
{ACAD_REACTORS
330
5F14
102
}
330
5F14
100
AcDbXrecord
280
     1
270
     1
271
     1
  0
XRECORD
  5
5F18
102
{ACAD_REACTORS
330
5F14
102
}
330
5F14
100
AcDbXrecord
280
     1
270
     1
271
     1
  0
XRECORD
  5
5F1A
102
{ACAD_REACTORS
330
5F14
102
}
330
5F14
100
AcDbXrecord
280
     1
270
     1
271
     1
  0
XRECORD
  5
5F17
102
{ACAD_REACTORS
330
5F14
102
}
330
5F14
100
AcDbXrecord
280
     1
270
     1
271
     1
  0
XRECORD
  5
7187
102
{ACAD_REACTORS
330
5F0C
102
}
330
5F0C
100
AcDbXrecord
280
     1
102
MATERIAL
148
0.0
149
0.0
149
0.0
 93
        0
 94
      127
282
     0
 72
     0
 77
     0
171
     0
175
     0
179
     0
273
     0
  0
XRECORD
  5
5F0E
102
{ACAD_REACTORS
330
5F0C
102
}
330
5F0C
100
AcDbXrecord
280
     1
270
     1
271
     1
  0
XRECORD
  5
5F0D
102
{ACAD_REACTORS
330
5F0C
102
}
330
5F0C
100
AcDbXrecord
280
     1
270
     1
271
     1
  0
XRECORD
  5
5F11
102
{ACAD_REACTORS
330
5F0C
102
}
330
5F0C
100
AcDbXrecord
280
     1
270
     1
271
     1
  0
XRECORD
  5
5F10
102
{ACAD_REACTORS
330
5F0C
102
}
330
5F0C
100
AcDbXrecord
280
     1
270
     1
271
     1
  0
XRECORD
  5
5F12
102
{ACAD_REACTORS
330
5F0C
102
}
330
5F0C
100
AcDbXrecord
280
     1
270
     1
271
     1
  0
XRECORD
  5
5F0F
102
{ACAD_REACTORS
330
5F0C
102
}
330
5F0C
100
AcDbXrecord
280
     1
270
     1
271
     1
  0
XRECORD
  5
7189
102
{ACAD_REACTORS
330
5F1C
102
}
330
5F1C
100
AcDbXrecord
280
     1
102
MATERIAL
148
0.0
149
0.0
149
0.0
 93
        0
 94
      127
282
     0
 72
     0
 77
     0
171
     0
175
     0
179
     0
273
     0
  0
XRECORD
  5
5F1E
102
{ACAD_REACTORS
330
5F1C
102
}
330
5F1C
100
AcDbXrecord
280
     1
270
     1
271
     1
  0
XRECORD
  5
5F1D
102
{ACAD_REACTORS
330
5F1C
102
}
330
5F1C
100
AcDbXrecord
280
     1
270
     1
271
     1
  0
XRECORD
  5
5F21
102
{ACAD_REACTORS
330
5F1C
102
}
330
5F1C
100
AcDbXrecord
280
     1
270
     1
271
     1
  0
XRECORD
  5
5F20
102
{ACAD_REACTORS
330
5F1C
102
}
330
5F1C
100
AcDbXrecord
280
     1
270
     1
271
     1
  0
XRECORD
  5
5F22
102
{ACAD_REACTORS
330
5F1C
102
}
330
5F1C
100
AcDbXrecord
280
     1
270
     1
271
     1
  0
XRECORD
  5
5F1F
102
{ACAD_REACTORS
330
5F1C
102
}
330
5F1C
100
AcDbXrecord
280
     1
270
     1
271
     1
  0
CELLSTYLEMAP
  5
7184
102
{ACAD_REACTORS
330
7183
102
}
330
7183
100
AcDbCellStyleMap
 90
        3
300
CELLSTYLE
  1
TABLEFORMAT_BEGIN
 90
        5
170
     1
 91
        0
 92
    32768
 62
   257
 93
        1
300
CONTENTFORMAT
  1
CONTENTFORMAT_BEGIN
 90
        0
 91
        0
 92
      512
 93
        0
300

 40
0.0
140
1.0
 94
        5
 62
     0
340
5F57
144
0.25
309
CONTENTFORMAT_END
171
     0
 94
        0
309
TABLEFORMAT_END
  1
CELLSTYLE_BEGIN
 90
        1
 91
        1
300
_TITLE
309
CELLSTYLE_END
300
CELLSTYLE
  1
TABLEFORMAT_BEGIN
 90
        5
170
     1
 91
        0
 92
        0
 62
   257
 93
        1
300
CONTENTFORMAT
  1
CONTENTFORMAT_BEGIN
 90
        0
 91
        0
 92
      512
 93
        0
300

 40
0.0
140
1.0
 94
        5
 62
     0
340
5F57
144
0.18
309
CONTENTFORMAT_END
171
     0
 94
        0
309
TABLEFORMAT_END
  1
CELLSTYLE_BEGIN
 90
        2
 91
        1
300
_HEADER
309
CELLSTYLE_END
300
CELLSTYLE
  1
TABLEFORMAT_BEGIN
 90
        5
170
     1
 91
        0
 92
        0
 62
   257
 93
        1
300
CONTENTFORMAT
  1
CONTENTFORMAT_BEGIN
 90
        0
 91
        0
 92
      512
 93
        0
300

 40
0.0
140
1.0
 94
        2
 62
     0
340
5F57
144
0.18
309
CONTENTFORMAT_END
171
     0
 94
        0
309
TABLEFORMAT_END
  1
CELLSTYLE_BEGIN
 90
        3
 91
        2
300
_DATA
309
CELLSTYLE_END
  0
XRECORD
  5
718A
102
{ACAD_REACTORS
330
7183
102
}
330
7183
100
AcDbXrecord
280
     1
102
ACAD_ROUNDTRIP_PRE2007_TABLESTYLE
 90
      512
 91
        0
  1

 92
      512
 93
        0
  2

 94
      512
 95
        0
  3

  0
ENDSEC
  0
EOF
